<?xml version="1.0" standalone="no"?>
<!DOCTYPE svg PUBLIC "-//W3C//DTD SVG 1.1//EN" "http://www.w3.org/Graphics/SVG/1.1/DTD/svg11.dtd" >
<svg xmlns="http://www.w3.org/2000/svg">
<metadata>Generated by IcoMoon</metadata>
<defs>
<font id="Ionicons" horiz-adv-x="1024">
<font-face units-per-em="1024" ascent="960" descent="-64" />
<missing-glyph horiz-adv-x="1024" />
<glyph unicode="&#x20;" horiz-adv-x="512" d="" />
<glyph unicode="&#xf100;" glyph-name="ios-add-circle-outline" d="M512 864c-229.8 0-416-186.2-416-416s186.2-416 416-416c229.8 0 416 186.2 416 416s-186.2 416-416 416zM512 66.6c-210.2 0-381.4 171-381.4 381.4s171.2 381.4 381.4 381.4 381.4-171.2 381.4-381.4-171.2-381.4-381.4-381.4zM528 704h-32v-240h-240v-32h240v-240h32v240h240v32h-240z" />
<glyph unicode="&#xf101;" glyph-name="ios-add-circle" d="M512 864c-229.8 0-416-186.2-416-416s186.2-416 416-416c229.8 0 416 186.2 416 416s-186.2 416-416 416zM768 432h-240v-240h-32v240h-240v32h240v240h32v-240h240v-32z" />
<glyph unicode="&#xf102;" glyph-name="ios-add" d="M768 432h-240v-240h-32v240h-240v32h240v240h32v-240h240v-32z" />
<glyph unicode="&#xf103;" glyph-name="ios-alarm-outline" d="M876.8 575.2c24.4 28.4 39.2 64.6 39.2 104.4 0.2 87.6-71 159.2-160.8 164.2-3.2 0.2-6.2 0.2-9.6 0.2-40.8 0.2-78.2-13.6-107.6-36.2l107.6-104.8-21-20.8c-51.4 38.8-114 64-182 69.8v0.2c0 17-14 31-31 31s-31-14-31-31v-0.2c-67.8-5.8-130.2-31-181.4-69.8l-20.8 20.8 107.6 104.8c-29.4 22.8-66.8 36.4-107.4 36.2-3.2 0-6.4-0.2-9.6-0.2-90-5-161.2-76.6-160.8-164.2 0-39.6 14.8-76 39.2-104.4l108 105.2 19-19c-70.2-63.8-114.2-156-114.2-258.4 0-87.8 32.4-168 86-229.4l-72.8-89.2 24.6-20.4 70.4 85.8c63.2-60.4 148.8-97.8 243.2-97.8h0.2c0 0 0.4 0 0.6 0 94.4 0 180.4 37.4 243.6 97.8l70.4-86 24.6 20.2-73 89.4c53.6 61.6 86 141.8 86 229.4 0 102.2-44 194.6-114.4 258.6l19 19 108.2-105.2zM152.4 624.4c-8.4 17.2-12.8 36.8-13 56-0.2 70.2 56.8 129.2 131 133.6 25.4 1.4 46.2-2.8 64.2-12.2l-182.2-177.4zM831.8 407c0-175.4-144-314.2-320.2-314.2-176 0-319.6 138.8-319.6 314.2s143.6 317.4 319.8 317.4c176.2 0 320-141.8 320-317.4zM689.4 801.6c17.6 9.6 38.6 13.6 64.2 12.2 74.4-4 131.2-63 131-133.6 0-19.2-4.6-38.8-13-56.2l-182.2 177.6zM512 640v-256h-192v-32h224v288z" />
<glyph unicode="&#xf104;" glyph-name="ios-alarm" d="M876.8 575.2c24.4 28.4 39.2 64.6 39.2 104.4 0.2 87.6-71 159.2-160.8 164.2-3.2 0.2-6.2 0.2-9.6 0.2-40.8 0.2-78.2-13.6-107.6-36.2l107.6-104.8-21.2-20.8c-51.4 38.8-114.4 64-182.4 69.8v0.2c0 17-14 31-31 31s-31-14-31-31v-0.2c-68-5.8-130-31-181.2-69.8l-20.8 20.6 107.6 104.8c-29.4 22.8-66.8 36.4-107.4 36.2-3.2 0-6.4-0.2-9.6-0.2-90-5-161.2-76.6-160.8-164.2 0-39.6 14.8-76 39.2-104.4l108 105.2 19-19c-70.2-63.8-114.2-156-114.2-258.4 0-87.8 32.4-168 86-229.4l-72.8-89.2 25-20.2 70.4 85.8c63.2-60.4 148.8-97.8 243.2-97.8h0.2c0 0 0.4 0 0.6 0 94.4 0 180.4 37.4 243.6 97.8l70.4-86 24.6 20.2-73 89.4c53.6 61.6 86 141.8 86 229.4 0 102.2-44 194.6-114.4 258.6l19 19 108.2-105.2zM544 352h-224v32h192v256h32v-288z" />
<glyph unicode="&#xf105;" glyph-name="ios-albums-outline" d="M928 672v-576h-832v576h832zM960 704h-896v-640h896v640zM144 768h736v-32h-736v32zM208 832h608v-32h-608v32z" />
<glyph unicode="&#xf106;" glyph-name="ios-albums" d="M960 704h-896v-640h896v640zM144 768h736v-32h-736v32zM208 832h608v-32h-608v32z" />
<glyph unicode="&#xf107;" glyph-name="ios-alert-outline" d="M512 864c-229.8 0-416-186.2-416-416s186.2-416 416-416c229.8 0 416 186.2 416 416s-186.2 416-416 416zM512 66.6c-210.2 0-381.4 171-381.4 381.4 0 210.2 171 381.4 381.4 381.4 210.2 0 381.4-171 381.4-381.4 0-210.2-171.2-381.4-381.4-381.4zM512 293.8c-17.6 0-32-14.4-32-32s14.4-32 32-32c17.6 0 32 14.4 32 32s-14.4 32-32 32zM488.4 493.6v178.4h48v-178.4l-12-141.6h-24l-12 141.6z" />
<glyph unicode="&#xf108;" glyph-name="ios-alert" d="M512 864c-229.8 0-416-186.2-416-416s186.2-416 416-416c229.8 0 416 186.2 416 416s-186.2 416-416 416zM488.4 672h48v-178.4l-12-141.6h-24l-12 141.6v178.4zM512 229.8c-17.6 0-32 14.4-32 32s14.4 32 32 32c17.6 0 32-14.4 32-32 0-17.8-14.4-32-32-32z" />
<glyph unicode="&#xf109;" glyph-name="ios-american-football-outline" d="M757.21 693.21c-145.406 145.408-378.45 170.794-523.51 170.79-77.852-0.002-130.382-7.316-130.382-7.316s-59.968-430.454 163.472-653.894c145.408-145.408 378.444-170.79 523.508-170.79 77.852 0 130.384 7.316 130.384 7.316s59.97 430.452-163.472 653.894zM130.284 829.584c21.99 2.028 58.464 4.416 103.428 4.416h0.288l-0.136 0.142c54.334 0 106.334-3.508 155.584-10.44l-253.2-253.162c-2.050 14.566-3.82 29.394-5.28 44.492-9.172 94.87-4.172 176.456-0.684 214.552zM287.8 223.796c-47.7 47.704-85.586 109.876-112.608 184.792-13.946 38.664-25.020 80.746-33.14 125.732l283.624 283.58c21.344-3.858 42.128-8.382 62.282-13.608 104.054-26.984 187.566-71.416 248.278-132.128 47.702-47.7 85.572-109.856 112.594-184.772 13.948-38.666 25.018-80.75 33.134-125.742l-283.624-283.622c-21.32 3.86-42.082 8.382-62.208 13.602-104.060 26.978-187.612 71.452-248.332 132.166zM893.722 66.264c-21.988-2.024-58.46-4.55-103.42-4.55-54.384 0-106.45 3.54-155.752 10.5l253.214 253.214c2.048-14.558 3.816-29.376 5.276-44.466 9.176-94.874 4.172-176.596 0.682-214.698zM614.608 324.306l45.25-45.264-57.308-57.304 22.63-22.628 135.762 135.762-22.628 22.628-57.442-57.442-45.25 45.262 57.432 57.434-22.626 22.626-57.43-57.428-45.266 45.276 57.404 57.404-22.626 22.628-57.4-57.4-45.252 45.262 57.394 57.394-22.628 22.626-57.388-57.39-45.262 45.274 57.374 57.374-22.626 22.626-57.37-57.37-45.248 45.26 57.364 57.364-22.626 22.626-135.766-135.764 22.628-22.628 57.386 57.388 45.248-45.26-57.382-57.382 22.626-22.626 57.378 57.378 45.26-45.274-57.356-57.358 22.626-22.626 57.354 57.354 45.252-45.262-57.348-57.348 22.628-22.626 57.342 57.342 45.266-45.276-57.32-57.32 22.628-22.628z" />
<glyph unicode="&#xf10a;" glyph-name="ios-american-football" d="M757.21 693.21c-145.406 145.408-378.448 170.794-523.51 170.79-77.852-0.002-130.382-7.316-130.382-7.316s-59.968-430.454 163.472-653.894c145.408-145.408 378.444-170.79 523.506-170.79 77.854 0 130.386 7.316 130.386 7.316s59.972 430.452-163.472 653.894zM136.248 570.544l253.166 253.164c12.246-1.722 24.328-3.65 36.224-5.798l-283.588-283.586c-2.14 11.874-4.076 23.952-5.802 36.22zM534.624 289.61l57.376 57.376-45.254 45.256-57.376-57.376-22.626 22.624 57.376 57.376-45.254 45.254-57.376-57.376-22.626 22.624 57.376 57.376-45.256 45.256-57.376-57.376-22.626 22.624 57.378 57.378-45.256 45.254-57.376-57.376-22.628 22.626 135.768 135.766 22.626-22.628-57.376-57.376 45.256-45.254 57.376 57.376 22.626-22.626-57.376-57.376 45.256-45.256 57.376 57.376 22.628-22.626-57.376-57.376 45.254-45.254 57.376 57.376 22.626-22.624-57.376-57.376 45.256-45.256 57.376 57.376 22.624-22.626-57.376-57.376 45.254-45.254 57.376 57.376 22.628-22.624-135.766-135.768-22.626 22.626 57.376 57.376-45.256 45.256-57.376-57.376-22.63 22.628zM634.518 72.218c-12.242 1.726-24.318 3.66-36.208 5.812l283.648 283.65c2.142-11.876 4.076-23.954 5.802-36.222l-253.242-253.24z" />
<glyph unicode="&#xf10b;" glyph-name="ios-analytics-outline" d="M806.2 742.2c-162.4 162.4-425.8 162.4-588.4 0s-162.4-425.8 0-588.4c162.4-162.4 425.8-162.4 588.4 0 162.4 162.4 162.4 426 0 588.4zM242.4 717.6c148.6 148.6 390.6 148.6 539.2 0 76-76 113-176.2 111.4-276-5.8 9.2-46.2 70.4-105 70.4-55.8 0-84.6-52.2-103.6-86.6-2.8-5.2-5.6-10-8-14.2-23.2-39-55.4-60.8-86.2-58.6-27.2 2-50.4 22.6-65.2 58.4-18.6 44.8-59.2 93-107.4 99.8-22.8 3.2-57.2-1.8-90.6-43.4-6.6-8.2-14-19-22.4-31.8-21.2-31.4-53-78.8-77.4-82.8-42-6.8-73.2 24.4-78.6 29.2-4 3.4-8.8 8.6-14.6 15.2-15 113.8 21 233.2 108.4 320.4zM781.6 178.4c-148.6-148.6-390.6-148.6-539.2 0-48.4 48.4-81 106.6-97.8 168.2 14-11.4 38.6-26.6 71-26.6 5.4 0 11.2 0.4 17 1.4 38 6.2 71.6 56.2 98.8 96.4 7.8 11.6 15 22.4 20.8 29.6 19.4 24 40 34.8 61.2 31.8 25.8-3.6 62.2-32.4 82.2-80.4 19.8-47.4 52.6-75.2 92.6-78 43.2-3 86.6 24.8 116 74.2 2.8 4.6 5.6 9.6 8.4 15 17.2 31.2 38.6 70.2 75.4 70.2 22.2 0 41.8-14.6 54.4-26.8 14.8-14.4 18-18 25.8-29.2 6.8-9.6 13-17.4 20.6-33.4-11.6-77.8-47.4-152.6-107.2-212.4z" />
<glyph unicode="&#xf10c;" glyph-name="ios-analytics" d="M806.2 742.2c-162.4 162.4-425.8 162.4-588.4 0s-162.4-425.8 0-588.4c162.4-162.4 425.8-162.4 588.4 0 162.4 162.4 162.4 426 0 588.4zM242.4 717.6c148.6 148.6 390.6 148.6 539.2 0 76-76 113-176.2 111.4-276-5.8 9.4-46.2 70.4-105 70.4-55.8 0-84.6-52.2-103.6-86.6-2.8-5.2-5.6-10-8-14.2-23.2-39-55.4-60.8-86.2-58.6-27.2 2-50.4 22.6-65.2 58.4-18.6 44.8-59.2 93-107.4 99.8-22.8 3.2-57.2-1.8-90.6-43.4-6.6-8.2-14-19-22.4-31.8-21.2-31.4-53-78.8-77.4-82.8-42-6.8-73.2 24.4-78.6 29.2-4 3.4-8.8 8.6-14.4 15-15.2 114 20.8 233.4 108.2 320.6z" />
<glyph unicode="&#xf10d;" glyph-name="ios-aperture-outline" d="M512 864c-229.8 0-416-186.2-416-416 0-131 60.6-247.8 155.2-324.2l-1.2-2.2 16.6-9.6c68.8-50.4 153.6-80 245.4-80 229.8 0 416 186.2 416 416s-186.2 416-416 416zM865.8 597.4c20-47.4 30.2-97.6 30.2-149.4 0-10.8-0.4-21.4-1.4-32h-325.6l188.8 327c8.8-7.4 17.4-15.2 25.8-23.4 35.2-35.4 62.8-76.4 82.2-122.2zM474 445.8l19.8 34.2h37.4l18.8-32.8-18-31.2h-40.8l-17.2 29.8zM661.4 801.8c25-10.6 48.6-23.8 70.8-39.2l-163.6-283.4-190 329c42.6 15.8 87.4 23.8 133.4 23.8 51.8 0 102.2-10.2 149.4-30.2zM240.4 719.6c31.8 31.8 68.2 57.4 108.4 76.2l164-283.8h-379.4c5 29.4 13.2 57.8 24.8 85.4 19.4 45.8 47 86.8 82.2 122.2zM240.4 176.4c-35.2 35.2-63 76.4-82.4 122-19.8 47.4-30 97.8-30 149.6 0 10.8 0.4 21.4 1.4 32h327.6l-189.4-328c-9.4 7.6-18.4 15.8-27.2 24.4zM362.6 94.2c-24.6 10.4-47.8 23.2-69.4 38.2l162.4 281.4 188.4-326.4c-42.2-15.4-86.6-23.4-132-23.4-51.8 0-102.2 10.2-149.4 30.2zM783.6 176.4c-32-32-68.8-57.8-109.6-76.8l-164.2 284.4h381c-5-29.4-13.2-57.8-24.8-85.4-19.6-45.8-47.2-86.8-82.4-122.2z" />
<glyph unicode="&#xf10e;" glyph-name="ios-aperture" d="M493.8 480l-19.8-34.2 17.2-29.8h40.8l18.2 31.2-19 32.8zM512 864c-229.8 0-416-186.2-416-416s186.2-416 416-416 416 186.2 416 416-186.2 416-416 416zM509.8 384l164.2-284.2c-4.2-2-8.2-3.8-12.4-5.6-5.8-2.4-11.6-4.8-17.4-6.8l-188.4 326.4-162.4-281.4c-8.8 6.2-17.4 12.6-25.6 19.4l189.4 328h-327.8c0.8 10.8 2.2 21.4 4 32h379.4l-163.8 284c4.4 2.2 9 4.2 13.6 6 5.4 2.2 10.8 4.4 16.2 6.4l190-329 163.6 283.4c8.8-6.2 17.4-12.8 25.6-19.6l-189-327h325.6c-0.8-10.8-2.2-21.4-4-32h-380.8z" />
<glyph unicode="&#xf10f;" glyph-name="ios-apps-outline" d="M308 800c6.6 0 12-5.4 12-12v-104c0-6.6-5.4-12-12-12h-104c-6.6 0-12 5.4-12 12v104c0 6.6 5.4 12 12 12h104zM308 832h-104c-24.2 0-44-19.8-44-44v-104c0-24.2 19.8-44 44-44h104c24.2 0 44 19.8 44 44v104c0 24.2-19.8 44-44 44v0zM564 800c6.6 0 12-5.4 12-12v-104c0-6.6-5.4-12-12-12h-104c-6.6 0-12 5.4-12 12v104c0 6.6 5.4 12 12 12h104zM564 832h-104c-24.2 0-44-19.8-44-44v-104c0-24.2 19.8-44 44-44h104c24.2 0 44 19.8 44 44v104c0 24.2-19.8 44-44 44v0zM820 800c6.6 0 12-5.4 12-12v-104c0-6.6-5.4-12-12-12h-104c-6.6 0-12 5.4-12 12v104c0 6.6 5.4 12 12 12h104zM820 832h-104c-24.2 0-44-19.8-44-44v-104c0-24.2 19.8-44 44-44h104c24.2 0 44 19.8 44 44v104c0 24.2-19.8 44-44 44v0zM308 512c6.6 0 12-5.4 12-12v-104c0-6.6-5.4-12-12-12h-104c-6.6 0-12 5.4-12 12v104c0 6.6 5.4 12 12 12h104zM308 544h-104c-24.2 0-44-19.8-44-44v-104c0-24.2 19.8-44 44-44h104c24.2 0 44 19.8 44 44v104c0 24.2-19.8 44-44 44v0zM564 512c6.6 0 12-5.4 12-12v-104c0-6.6-5.4-12-12-12h-104c-6.6 0-12 5.4-12 12v104c0 6.6 5.4 12 12 12h104zM564 544h-104c-24.2 0-44-19.8-44-44v-104c0-24.2 19.8-44 44-44h104c24.2 0 44 19.8 44 44v104c0 24.2-19.8 44-44 44v0zM820 512c6.6 0 12-5.4 12-12v-104c0-6.6-5.4-12-12-12h-104c-6.6 0-12 5.4-12 12v104c0 6.6 5.4 12 12 12h104zM820 544h-104c-24.2 0-44-19.8-44-44v-104c0-24.2 19.8-44 44-44h104c24.2 0 44 19.8 44 44v104c0 24.2-19.8 44-44 44v0zM308 224c6.6 0 12-5.4 12-12v-104c0-6.6-5.4-12-12-12h-104c-6.6 0-12 5.4-12 12v104c0 6.6 5.4 12 12 12h104zM308 256h-104c-24.2 0-44-19.8-44-44v-104c0-24.2 19.8-44 44-44h104c24.2 0 44 19.8 44 44v104c0 24.2-19.8 44-44 44v0zM564 224c6.6 0 12-5.4 12-12v-104c0-6.6-5.4-12-12-12h-104c-6.6 0-12 5.4-12 12v104c0 6.6 5.4 12 12 12h104zM564 256h-104c-24.2 0-44-19.8-44-44v-104c0-24.2 19.8-44 44-44h104c24.2 0 44 19.8 44 44v104c0 24.2-19.8 44-44 44v0zM820 224c6.6 0 12-5.4 12-12v-104c0-6.6-5.4-12-12-12h-104c-6.6 0-12 5.4-12 12v104c0 6.6 5.4 12 12 12h104zM820 256h-104c-24.2 0-44-19.8-44-44v-104c0-24.2 19.8-44 44-44h104c24.2 0 44 19.8 44 44v104c0 24.2-19.8 44-44 44v0z" />
<glyph unicode="&#xf110;" glyph-name="ios-apps" d="M308 640h-104c-24.2 0-44 19.8-44 44v104c0 24.2 19.8 44 44 44h104c24.2 0 44-19.8 44-44v-104c0-24.2-19.8-44-44-44zM564 640h-104c-24.2 0-44 19.8-44 44v104c0 24.2 19.8 44 44 44h104c24.2 0 44-19.8 44-44v-104c0-24.2-19.8-44-44-44zM820 640h-104c-24.2 0-44 19.8-44 44v104c0 24.2 19.8 44 44 44h104c24.2 0 44-19.8 44-44v-104c0-24.2-19.8-44-44-44zM308 352h-104c-24.2 0-44 19.8-44 44v104c0 24.2 19.8 44 44 44h104c24.2 0 44-19.8 44-44v-104c0-24.2-19.8-44-44-44zM564 352h-104c-24.2 0-44 19.8-44 44v104c0 24.2 19.8 44 44 44h104c24.2 0 44-19.8 44-44v-104c0-24.2-19.8-44-44-44zM820 352h-104c-24.2 0-44 19.8-44 44v104c0 24.2 19.8 44 44 44h104c24.2 0 44-19.8 44-44v-104c0-24.2-19.8-44-44-44zM308 64h-104c-24.2 0-44 19.8-44 44v104c0 24.2 19.8 44 44 44h104c24.2 0 44-19.8 44-44v-104c0-24.2-19.8-44-44-44zM564 64h-104c-24.2 0-44 19.8-44 44v104c0 24.2 19.8 44 44 44h104c24.2 0 44-19.8 44-44v-104c0-24.2-19.8-44-44-44zM820 64h-104c-24.2 0-44 19.8-44 44v104c0 24.2 19.8 44 44 44h104c24.2 0 44-19.8 44-44v-104c0-24.2-19.8-44-44-44z" />
<glyph unicode="&#xf111;" glyph-name="ios-appstore-outline" d="M512 864c-229.8 0-416-186.2-416-416s186.2-416 416-416c229.8 0 416 186.2 416 416s-186.2 416-416 416zM512 66.6c-210.2 0-381.4 171-381.4 381.4 0 210.2 171 381.4 381.4 381.4 210.2 0 381.4-171 381.4-381.4 0-210.2-171.2-381.4-381.4-381.4zM278.6 256l68.4 57.6-49.4 32.4zM684.4 364c-13.6-6.4-30.4-28-7.8-57.2 18.2-23.4 36-17.4 53-50.8 9.6 8.2 18.8 43.4 14.6 71.4-4.8 30.6-24.6 53-59.8 36.6zM503.2 580.8c3.2 5.4 1.2 12.6-4.2 15.8l-30.2 17.2c-5.6 3.2-12.6 1.2-15.8-4.2l-145.6-252 49.8-30 87.8 152.6 58.2 100.6zM461.2 480l-37-64h178.4l-36.2 64zM702 416h66v64h-102zM362.2 480h-106.2v-64h69.2zM649.2 480l-120 211.6c-3.2 5.6-10.4 7.4-15.8 4.2l-30.2-17.2c-5.6-3.2-7.4-10.2-4.2-15.8l140-247.4 1 0.6 48.8 29.6-19.6 34.4zM686.4 416l-9.8 17.4-49.6-30 26-46 49.8 30.2z" />
<glyph unicode="&#xf112;" glyph-name="ios-appstore" d="M512 864c-229.8 0-416-186.2-416-416s186.2-416 416-416c229.8 0 416 186.2 416 416s-186.2 416-416 416zM256 480h106.2l-37-64h-69.2v64zM278.6 256l19 90 49.6-32.4-68.6-57.6zM357.2 327.4l-49.8 30 33.8 58.4 37 64 74.8 129.6c3.2 5.6 10.4 7.4 15.8 4.2l30.2-17.2c5.6-3.2 7.4-10.2 4.2-15.8l-94.8-164.8-51.2-88.4zM424.2 416l36.8 64h105.4l36.2-64h-178.4zM619 415.4l-0.4 0.6-139.6 246.8c-3.2 5.4-1.2 12.6 4.2 15.8l30.2 17.2c5.6 3.2 12.6 1.2 15.8-4.2l120-211.6 19.6-34.4-49.8-30.2zM627 403.4l49.6 30 10-17.4 16.2-28.4-49.8-30-26 45.8zM729.4 256c-17 33.6-34.8 27.4-53 50.8-22.6 29.2-5.8 50.8 7.8 57.2 35.2 16.4 55-6 59.6-36.6 4.4-28-4.8-63.2-14.4-71.4zM768 416h-66l-36 64h102v-64z" />
<glyph unicode="&#xf113;" glyph-name="ios-archive-outline" d="M575.6 480c17.6 0 32.2-14.4 32.2-32s-14-32-31.8-32h-128c-17.6 0-32 14.4-32 32s14.4 32 32 32h126zM576 512h-128c-35.2 0-64-28.8-64-64s28.8-64 64-64h128c35.2 0 64 28.8 64 64s-28.8 64-64 64v0zM832 736h-640v-160h32v-416h576v416h32v160zM768 192h-512v384h512v-384zM800 608h-576v96h576v-96z" />
<glyph unicode="&#xf114;" glyph-name="ios-archive" d="M224 160h576v384h-576v-384zM448 480h128c17.6 0 32-14.4 32-32s-14.4-32-32-32h-128c-17.6 0-32 14.4-32 32s14.4 32 32 32zM192 736v-160h640v160z" />
<glyph unicode="&#xf115;" glyph-name="ios-arrow-back" d="M704 703.2l-64.6 64.8-319.4-320 319.4-320 64.6 64.8-254.6 255.2z" />
<glyph unicode="&#xf116;" glyph-name="ios-arrow-down" d="M256.8 640l-64.8-64.6 320-319.4 320 319.4-64.8 64.6-255.2-254.6z" />
<glyph unicode="&#xf117;" glyph-name="ios-arrow-dropdown-circle" d="M512 864c-229.8 0-416-186.2-416-416s186.2-416 416-416 416 186.2 416 416c0 229.8-186.2 416-416 416zM512 343.2l186.4 200.8 25.6-27.6-212-228.4-212 228.4 25.6 27.6 186.4-200.8z" />
<glyph unicode="&#xf118;" glyph-name="ios-arrow-dropdown" d="M698.4 544l25.6-27.6-212-228.4-212 228.4 25.6 27.6 186.4-200.8zM512 864c-229.8 0-416-186.2-416-416s186.2-416 416-416 416 186.2 416 416c0 229.8-186.2 416-416 416zM512 829.4c210.2 0 381.4-171 381.4-381.4 0-210.2-171-381.4-381.4-381.4-210.2 0-381.4 171-381.4 381.4 0 210.2 171.2 381.4 381.4 381.4z" />
<glyph unicode="&#xf119;" glyph-name="ios-arrow-dropleft-circle" d="M512 864c-229.8 0-416-186.2-416-416s186.2-416 416-416c229.8 0 416 186.2 416 416s-186.2 416-416 416zM608 261.6l-27.6-25.6-228.4 212 228.4 212 27.6-25.6-200.8-186.4 200.8-186.4z" />
<glyph unicode="&#xf11a;" glyph-name="ios-arrow-dropleft" d="M608 634.4l-27.6 25.6-228.4-212 228.4-212 27.6 25.6-200.8 186.4zM512 864c-229.8 0-416-186.2-416-416s186.2-416 416-416c229.8 0 416 186.2 416 416s-186.2 416-416 416zM512 66.6c-210.2 0-381.4 171-381.4 381.4 0 210.2 171 381.4 381.4 381.4 210.2 0 381.4-171 381.4-381.4 0-210.2-171.2-381.4-381.4-381.4z" />
<glyph unicode="&#xf11b;" glyph-name="ios-arrow-dropright-circle" d="M96 448c0-229.8 186.2-416 416-416s416 186.2 416 416-186.2 416-416 416c-229.8 0-416-186.2-416-416zM616.8 448l-200.8 186.4 27.6 25.6 228.4-212-228.4-212-27.6 25.6 200.8 186.4z" />
<glyph unicode="&#xf11c;" glyph-name="ios-arrow-dropright" d="M416 634.4l27.6 25.6 228.4-212-228.4-212-27.6 25.6 200.8 186.4zM96 448c0-229.8 186.2-416 416-416s416 186.2 416 416-186.2 416-416 416c-229.8 0-416-186.2-416-416zM130.6 448c0 210.2 171 381.4 381.4 381.4 210.2 0 381.4-171 381.4-381.4 0-210.2-171-381.4-381.4-381.4-210.2 0-381.4 171.2-381.4 381.4z" />
<glyph unicode="&#xf11d;" glyph-name="ios-arrow-dropup-circle" d="M512 32c229.8 0 416 186.2 416 416s-186.2 416-416 416-416-186.2-416-416c0-229.8 186.2-416 416-416zM512 552.8l-186.4-200.8-25.6 27.6 212 228.4 212-228.4-25.6-27.6-186.4 200.8z" />
<glyph unicode="&#xf11e;" glyph-name="ios-arrow-dropup" d="M325.6 352l-25.6 27.6 212 228.4 212-228.4-25.6-27.6-186.4 200.8zM512 32c229.8 0 416 186.2 416 416s-186.2 416-416 416-416-186.2-416-416c0-229.8 186.2-416 416-416zM512 66.6c-210.2 0-381.4 171-381.4 381.4 0 210.2 171 381.4 381.4 381.4 210.2 0 381.4-171 381.4-381.4 0-210.2-171.2-381.4-381.4-381.4z" />
<glyph unicode="&#xf11f;" glyph-name="ios-arrow-forward" d="M574.6 448l-254.6-255.2 64.6-64.8 319.4 320-319.4 320-64.6-64.8z" />
<glyph unicode="&#xf120;" glyph-name="ios-arrow-round-back" d="M752 464h-441.4l132.6 148.8c5.8 6.8 6.4 16.2 0.2 22.4s-17 6.6-22.8 0.2l-160-176c-0.4-0.4-0.8-0.8-1-1.2-0.2-0.2-0.2-0.4-0.4-0.6s-0.4-0.4-0.6-0.8c-0.2-0.2-0.2-0.4-0.4-0.6s-0.2-0.4-0.4-0.6c-0.2-0.2-0.2-0.4-0.4-0.8-0.2-0.2-0.2-0.4-0.4-0.6 0-0.2-0.2-0.4-0.2-0.8 0-0.2-0.2-0.6-0.2-0.8s-0.2-0.4-0.2-0.8c0-0.2-0.2-0.6-0.2-0.8s0-0.6-0.2-0.8c0-0.2 0-0.4 0-0.6-0.2-1-0.2-2.2 0-3.2 0-0.2 0-0.4 0-0.6s0-0.6 0.2-0.8c0-0.2 0.2-0.6 0.2-0.8s0.2-0.4 0.2-0.8c0-0.2 0.2-0.6 0.2-0.8s0.2-0.4 0.2-0.8c0-0.2 0.2-0.4 0.4-0.6s0.2-0.4 0.4-0.8c0.2-0.2 0.2-0.4 0.4-0.6s0.2-0.4 0.4-0.6c0.2-0.2 0.4-0.4 0.6-0.8 0.2-0.2 0.2-0.4 0.4-0.6 0.4-0.4 0.6-0.8 1-1.2l160-176c3.2-3.4 7.2-4.6 11.4-4.6 4 0 8.2 1.6 11.4 4.6 6.2 6.2 6 16 0 22.6l-132.8 148.8h441.4c8.8 0 16 7.2 16 16s-7.2 16-16 16z" />
<glyph unicode="&#xf121;" glyph-name="ios-arrow-round-down" d="M496 688v-441.4l-148.8 132.6c-6.8 5.8-16.2 6.4-22.4 0.2s-6.6-17-0.2-22.8l176-160c0.4-0.4 0.8-0.8 1.2-1 0.2-0.2 0.4-0.2 0.6-0.4s0.4-0.4 0.8-0.6c0.2-0.2 0.4-0.2 0.6-0.4s0.4-0.2 0.6-0.4c0.2-0.2 0.4-0.2 0.8-0.4 0.2-0.2 0.4-0.2 0.6-0.4 0.2 0 0.4-0.2 0.8-0.2 0.2 0 0.6-0.2 0.8-0.2s0.4-0.2 0.8-0.2c0.2 0 0.6-0.2 0.8-0.2s0.6 0 0.8-0.2c0.2 0 0.4 0 0.6 0 1-0.2 2.2-0.2 3.2 0 0.2 0 0.4 0 0.6 0s0.6 0 0.8 0.2c0.2 0 0.6 0.2 0.8 0.2s0.4 0.2 0.8 0.2c0.2 0 0.6 0.2 0.8 0.2s0.4 0.2 0.8 0.2c0.2 0 0.4 0.2 0.6 0.4s0.4 0.2 0.8 0.4c0.2 0.2 0.4 0.2 0.6 0.4s0.4 0.2 0.6 0.4c0.2 0.2 0.4 0.4 0.8 0.6 0.2 0.2 0.4 0.2 0.6 0.4 0.4 0.4 0.8 0.6 1.2 1l176 160c3.4 3.2 4.6 7.2 4.6 11.4 0 4-1.6 8.2-4.6 11.4-6.2 6.2-16 6-22.6 0l-148.8-132.8v441.4c0 8.8-7.2 16-16 16s-16-7.2-16-16z" />
<glyph unicode="&#xf122;" glyph-name="ios-arrow-round-forward" d="M272 432h441.4l-132.6-148.8c-5.8-6.8-6.4-16.2-0.2-22.4s17-6.6 22.8-0.2l160 176c0.4 0.4 0.8 0.8 1 1.2 0.2 0.2 0.2 0.4 0.4 0.6s0.4 0.4 0.6 0.8c0.2 0.2 0.2 0.4 0.4 0.6s0.2 0.4 0.4 0.6c0.2 0.2 0.2 0.4 0.4 0.8 0.2 0.2 0.2 0.4 0.4 0.6 0 0.2 0.2 0.4 0.2 0.8 0 0.2 0.2 0.6 0.2 0.8s0.2 0.4 0.2 0.8c0 0.2 0.2 0.6 0.2 0.8s0 0.6 0.2 0.8c0 0.2 0 0.4 0 0.6 0.2 1 0.2 2.2 0 3.2 0 0.2 0 0.4 0 0.6s0 0.6-0.2 0.8c0 0.2-0.2 0.6-0.2 0.8s-0.2 0.4-0.2 0.8c0 0.2-0.2 0.6-0.2 0.8s-0.2 0.4-0.2 0.8c0 0.2-0.2 0.4-0.4 0.6s-0.2 0.4-0.4 0.8c-0.2 0.2-0.2 0.4-0.4 0.6s-0.2 0.4-0.4 0.6c-0.2 0.2-0.4 0.4-0.6 0.8-0.2 0.2-0.2 0.4-0.4 0.6-0.4 0.4-0.6 0.8-1 1.2l-160 176c-3.2 3.4-7.2 4.6-11.4 4.6-4 0-8.2-1.6-11.4-4.6-6.2-6.2-6-16 0-22.6l132.6-148.6h-441.2c-8.8 0-16-7.2-16-16 0-9 7.2-16.2 16-16.2z" />
<glyph unicode="&#xf123;" glyph-name="ios-arrow-round-up" d="M528 208v441.4l148.8-132.6c6.8-5.8 16.2-6.4 22.4-0.2s6.6 17 0.2 22.8l-176 160c-0.4 0.4-0.8 0.8-1.2 1-0.2 0.2-0.4 0.2-0.6 0.4s-0.4 0.4-0.8 0.6c-0.2 0.2-0.4 0.2-0.6 0.4s-0.4 0.2-0.6 0.4c-0.2 0.2-0.4 0.2-0.8 0.4-0.2 0.2-0.4 0.2-0.6 0.4-0.2 0-0.4 0.2-0.8 0.2-0.2 0-0.6 0.2-0.8 0.2s-0.4 0.2-0.8 0.2c-0.2 0-0.6 0.2-0.8 0.2s-0.6 0-0.8 0.2c-0.2 0-0.4 0-0.6 0-1 0.2-2.2 0.2-3.2 0-0.2 0-0.4 0-0.6 0s-0.6 0-0.8-0.2c-0.2 0-0.6-0.2-0.8-0.2s-0.4-0.2-0.8-0.2c-0.2 0-0.6-0.2-0.8-0.2s-0.4-0.2-0.8-0.2c-0.2 0-0.4-0.2-0.6-0.4s-0.4-0.2-0.8-0.4c-0.2-0.2-0.4-0.2-0.6-0.4s-0.4-0.2-0.6-0.4c-0.2-0.2-0.4-0.4-0.8-0.6-0.2-0.2-0.4-0.2-0.6-0.4-0.4-0.4-0.8-0.6-1.2-1l-176-160c-3.4-3.2-4.6-7.2-4.6-11.4 0-4 1.6-8.2 4.6-11.4 6.2-6.2 16-6 22.6 0l148.6 132.6v-441.2c0-8.8 7.2-16 16-16 9 0 16.2 7.2 16.2 16z" />
<glyph unicode="&#xf124;" glyph-name="ios-arrow-up" d="M767.2 256l64.8 64.6-320 319.4-320-319.4 64.8-64.6 255.2 254.6z" />
<glyph unicode="&#xf125;" glyph-name="ios-at-outline" d="M867.8 270.8c-65.8-127.6-195.2-206.8-337.6-206.8-101 0-194.6 39.8-263.8 112.2-68.8 72-106.6 168.4-106.6 271.8s37.8 199.8 106.6 271.8c69.2 72.4 163 112.2 263.8 112.2 101.8 0 187.8-38.6 242.2-108.4 52.6-67.6 69-156.2 46.4-249.8-21.8-90.2-67-131.6-101-150.4-35-19.4-83.6-26.8-104.8-8.8v0c-0.6 0.6-1.2 1.2-1.6 1.8-3 3.8-4.6 10.8-4.8 17s0.4 13.4 2 21.4c1.6 8 3.8 16.8 6.4 25.4l77.2 233.8h-42.6l-20-53c-9.2 24.2-21.2 41.6-36.2 52-15 10.6-31.4 15.8-49 15.8-28.4 0-54.4-7-77.8-20.8-23.6-13.8-43.6-31.8-60.2-54.2s-29.4-47.6-38.6-75.4c-9.2-27.8-13.6-55.8-13.6-83.8 0-16.2 2.4-31.4 7.2-45.4s11.8-26.4 20.8-37.2c9-10.8 20.2-19.4 33.4-25.6s28-9.4 44.6-9.4c20.4 0 39.4 5.4 57 16.8s32.6 24.2 45 36.2h1.6c1.6-18 9.4-31 19.6-40.2 5.2-4.6 12.6-9 22.2-12.2v-0.2c42.2-14.4 84.2-6 127.6 18 39.6 22 92.2 69.4 116.6 171 25 103.2 6.4 201.6-52.4 277.2-60.4 77.6-155.4 120.4-267.2 120.4-109.6 0-211.4-43.4-286.6-122-74.6-78-115.6-182.4-115.6-294s41-216 115.6-294c75.2-78.8 177.2-122 286.6-122 154.2 0 294.4 85.8 365.8 224l-28.2 14.8zM567 387.2c-12.2-19.6-26.6-36-43-49.6-16.4-13.4-34-20.2-53.2-20.2-19.6 0-35.8 7.2-48.6 21.4-12.8 14.4-19.2 33.8-19.2 58.6 0 19.2 3.2 40 9.8 62.4 6.6 22.2 16 43 28.2 62s27 34.8 44.2 47.4c17.2 12.6 36.2 19 56.8 19 8.2 0 16-2.2 23.8-6.6 7.6-4.4 14.4-10.2 20.4-17.4s11-15.2 14.8-24.4c3.8-9 5.8-18.6 5.8-28.4 0-18.2-3.6-38.6-10.6-61.2-7.2-22.4-17-43.4-29.2-63z" />
<glyph unicode="&#xf126;" glyph-name="ios-at" d="M768 775.8c10.6-10 20.4-21 29.4-32.6 58.8-75.4 77.4-173.8 52.4-277.2-24.6-101.4-77-149-116.6-171-43.4-24-85.4-32.4-127.6-18v0.2c-9.6 3.2-17 7.6-22.2 12.2-10.2 9.2-18 22.2-19.6 40.2h-1.6c-12.4-12-27.2-24.8-45-36.2s-36.6-16.8-57-16.8c-16.6 0-31.4 3-44.6 9.4-13.2 6.2-24.2 14.8-33.4 25.6s-16 23.2-20.8 37.2c-4.8 14-7.2 29.2-7.2 45.4 0 28 4.6 56 13.6 83.8s22 53 38.6 75.4c16.6 22.4 36.6 40.6 60.2 54.2 23.6 13.8 49.4 20.8 77.8 20.8 17.6 0 34-5.2 49-15.8s27-27.8 36.2-52l20 53h42.6l-77-233.6c-2.6-8.6-4.8-17.4-6.4-25.4s-2.2-15.2-2-21.4c0.2-6.2 1.8-13.2 4.8-17 0.4-0.6 1-1.2 1.6-1.8 21.2-18.2 69.8-10.6 104.8 8.8 34.2 18.8 79.4 60.2 101 150.4 22.6 93.6 6 182.2-46.4 249.8-45.6 58.4-109.2 117.6-193.6 133-27.8 5-44.2 7.6-67 7.6-229.8 0-416-186.2-416-416s186.2-416 416-416 416 186.2 416 416c0 133.2-62.6 251.8-160 327.8zM422.2 338.8c12.8-14.2 29-21.4 48.6-21.4 19.2 0 36.8 6.8 53.2 20.2 16.4 13.6 30.8 30 43 49.6s22 40.6 29 63.2 10.6 43 10.8 61c0 9.8-2 19.4-5.8 28.4-2 4.6-4.2 9-6.6 13.2-2.4 4-5.2 7.8-8.2 11.4-6 7.2-12.8 13-20.4 17.4s-15.6 6.6-23.8 6.6c-20.8 0-39.6-6.4-56.8-19s-32-28.4-44.2-47.4c-12.2-19-21.6-39.6-28.2-62-6.6-22.2-9.8-43-9.8-62.4 0 0 0 0 0-0.2 0 0 0 0 0 0 0-24.8 6.4-44.2 19.2-58.6z" />
<glyph unicode="&#xf127;" glyph-name="ios-attach" d="M687 577c-9.4 0-17-7.6-17-17v-314c0-38-15-76.4-41.8-104.8-27.4-28.8-66.6-45.2-104.2-45.2h-24c-79 0-148 72-148 150v442.2c0 61.2 50.8 109.6 112 109.6s110-48.4 110-109.6v-428.6c0-34.4-27.2-67.6-62-67.6s-64 33-64 67.6v236.4c0 9.4-7.6 17-17 17s-17-7.6-17-17v-236.4c0-57.6 44.6-99.6 98-99.6s96 40 96 99.6v428.6c0 79.8-64.8 143.8-144.6 143.8s-143.4-64-143.4-143.8v-442.2c0-46.4 19-93.6 54.6-128.6 35.4-34.8 79-53.4 125.4-53.4h24c96 0 180 82.8 180 182v314c0 9.4-7.6 17-17 17z" />
<glyph unicode="&#xf128;" glyph-name="ios-backspace-outline" d="M790 768h-330c-93.4 0-146.4-69.4-204-127s-144.2-149.4-144.2-149.4c-9.8-11.2-15.8-25.6-15.8-41.8 0-16 6-30.6 15.8-42 0 0 68.6-75.2 144.2-151 75.6-75.6 113.4-129 204-129h330c77 0 138 65 138 142v360.2c0 77-61 138-138 138zM896 270c0-29-10.6-56.8-31-77.4-20.2-20.8-46.6-32.6-75-32.6h-330c-65.2 0-96.4 32.6-153 90.8l-171.4 178.4c-3.6 4.2-7.6 11.2-7.6 20.8 0 9.4 4 16.4 7.6 20.6l166.2 172.2c24.4 25.4 47.6 49 73.8 66.6 27.6 18.6 54.4 26.8 84.4 26.8h330c28.6 0 55-10.6 75.2-30.8s30.8-46.6 30.8-75.2v-360.2zM632.8 448l127.2 126.8-29.2 29.2-127.2-127-126.4 126.4-29.2-29.2 126.6-126.2-126.6-126.4 29.2-29 126.4 126.2 127.2-126.8 29.2 29z" />
<glyph unicode="&#xf129;" glyph-name="ios-backspace" d="M790 768h-330c-93.4 0-146.4-69.4-204-127s-144.2-149.4-144.2-149.4c-9.8-11.2-15.8-25.6-15.8-41.8 0-16 6-30.6 15.8-42 0 0 68.6-75.2 144.2-151 75.6-75.6 113.4-129 204-129h330c77 0 138 65 138 142v360.2c0 77-61 138-138 138zM730.8 292l-127.2 126.8-126.6-126.2-29 29 126.6 126.4-126.6 126.2 29.2 29.2 126.6-126.4 127.2 127 29.2-29.2-127.4-126.8 127.2-127-29.2-29z" />
<glyph unicode="&#xf12a;" glyph-name="ios-barcode-outline" d="M96 192h160v32h-128v448h128v32h-160zM768 704v-32h128v-448h-128v-32h160v512zM224 576h32v-256h-32v256zM768 576h32v-256h-32v256zM640 640h32v-384h-32v384zM352 640h32v-384h-32v384zM494 608h32v-320h-32v320z" />
<glyph unicode="&#xf12b;" glyph-name="ios-barcode" d="M96 704v-512h832v512h-832zM256 320h-32v256h32v-256zM384 256h-32v384h32v-384zM526 288h-32v320h32v-320zM672 256h-32v384h32v-384zM800 320h-32v256h32v-256z" />
<glyph unicode="&#xf12c;" glyph-name="ios-baseball-outline" d="M925.372 401.262c0.264 2.364 0.514 4.73 0.738 7.108 0.008 0.076 0.014 0.156 0.022 0.234 1.218 12.97 1.868 26.106 1.868 39.396 0 229.726-186.26 416-416 416-15.902 0-31.584-0.924-47.024-2.662-0.178-0.020-0.36-0.036-0.54-0.056 0-0.002 0-0.004 0-0.006-194.022-22.094-347.552-177.674-366.458-372.65-0.002 0-0.006 0-0.008 0-0.144-1.496-0.262-2.994-0.39-4.492-0.272-3.152-0.506-6.314-0.706-9.486-0.052-0.836-0.112-1.67-0.16-2.508-0.128-2.242-0.232-4.49-0.326-6.742-0.022-0.562-0.042-1.124-0.064-1.686-0.194-5.214-0.324-10.448-0.324-15.712 0-229.726 186.274-416 416-416 5.254 0 10.478 0.13 15.686 0.324 0.586 0.022 1.172 0.042 1.756 0.066 2.22 0.092 4.438 0.196 6.648 0.32 0.908 0.050 1.812 0.116 2.718 0.172 3.208 0.206 6.402 0.444 9.59 0.72 1.408 0.122 2.82 0.23 4.226 0.368 0 0.002 0 0.006 0 0.008 194.988 18.904 350.558 172.432 372.652 366.458 0.002 0 0.004 0 0.008 0 0.032 0.274 0.056 0.55 0.088 0.826zM893.33 448c0-5.136-0.132-10.244-0.334-15.332-20.668 0.936-41.104 3.38-61.228 7.328l12.22 38.112-30.464 9.768-12.976-40.47c-15.182 4.224-30.16 9.302-44.884 15.276-9.952 4.036-19.702 8.446-29.25 13.208l23.036 34.006-26.494 17.948-24.718-36.492c-24.482 14.7-47.406 31.954-68.61 51.624l29.46 29.46-22.626 22.626-29.46-29.46c-19.11 20.594-35.928 42.816-50.35 66.508l36.974 25.044-17.944 26.492-34.648-23.47c-5.194 10.262-9.996 20.75-14.348 31.48-5.686 14.018-10.552 28.268-14.654 42.704l41.624 13.346-9.77 30.468-39.422-12.64c-4.208 20.846-6.82 42.028-7.792 63.458 5.088 0.202 10.194 0.334 15.33 0.334 210.262 0.004 381.328-171.064 381.328-381.326zM130.674 448c0 2.634 0.046 5.258 0.1 7.878 18.128-1.118 36.078-3.374 53.782-6.818l-14.23-44.382 30.47-9.77 15 46.782c15.384-4.256 30.56-9.392 45.476-15.442 10.35-4.198 20.478-8.808 30.394-13.792l-26.81-39.58 26.492-17.946 28.438 41.984c24.076-14.558 46.64-31.586 67.53-50.966l-33.706-33.706 22.626-22.628 33.708 33.708c19.936-21.488 37.4-44.738 52.228-69.592l-41.506-28.116 17.944-26.492 38.946 26.38c4.566-9.222 8.8-18.634 12.694-28.232 6.322-15.59 11.668-31.458 16.032-47.556l-45.664-14.64 9.768-30.466 43.062 13.806c3.216-17.012 5.358-34.244 6.43-51.644-2.622-0.052-5.244-0.1-7.878-0.1-210.26 0.002-381.328 171.070-381.326 381.33zM551.786 68.742c-1.242 19.948-3.822 39.822-7.718 59.492l48.2 15.454-9.768 30.464-45.792-14.682c-7.892 28.83-18.712 57.020-32.468 84.108l40.344 27.328-17.946 26.492-37.976-25.724c-15.776 26.188-34.466 51.104-56.080 74.29l34.162 34.162-22.626 22.626-34.164-34.162c-22.576 21.042-46.786 39.32-72.216 54.828l25.392 37.486-26.492 17.944-26.892-39.7c-27.096 13.948-55.318 24.934-84.188 32.988l14.316 44.65-30.47 9.77-15.040-46.904c-20.362 4.136-40.954 6.848-61.62 8.134 18.336 176.074 156.984 316.908 332.046 338.622 1.148-23.716 4.19-47.352 9.086-70.678l-51.87-16.632 9.77-30.468 49.806 15.97c8.090-28.288 19.008-55.934 32.772-82.492l-44.644-30.242 17.946-26.492 42.472 28.77c15.376-25.056 33.47-48.91 54.232-71.18l-38.408-38.408 22.626-22.628 38.408 38.41c22.894-21.338 47.47-39.842 73.294-55.49l-29.11-42.972 26.496-17.948 30.656 45.256c26.56-13.578 54.2-24.31 82.458-32.236l-16.336-50.954 30.464-9.768 17.050 53.18c22.602-4.624 45.488-7.508 68.448-8.62-21.712-175.060-162.546-313.706-338.62-332.044z" />
<glyph unicode="&#xf12d;" glyph-name="ios-baseball" d="M512 864c-16.088 0-31.95-0.946-47.564-2.722v0 0c-207.326-23.61-368.436-199.638-368.436-413.278 0-229.726 186.274-416 416-416 213.654 0 389.666 161.106 413.276 368.436v0 0c1.778 15.61 2.724 31.474 2.724 47.564 0 229.726-186.26 416-416 416zM519.878 66.772c-1.078 17.386-3.21 34.61-6.418 51.608l-43.022-13.792-9.77 30.468 45.624 14.628c-4.366 16.112-9.712 31.988-16.040 47.588-3.886 9.588-8.122 18.994-12.682 28.21l-38.928-26.372-17.944 26.494 41.488 28.108c-14.832 24.858-32.298 48.114-52.238 69.606l-33.704-33.706-22.626 22.626 33.704 33.704c-20.884 19.378-43.442 36.404-67.514 50.96l-28.432-41.976-26.494 17.946 26.806 39.576c-9.92 4.982-20.054 9.598-30.412 13.8-14.91 6.042-30.076 11.18-45.45 15.434l-15-46.784-30.472 9.77 14.23 44.384c-17.712 3.446-35.67 5.706-53.808 6.824 0.218 10.746 0.876 21.39 1.968 31.906 20.678-1.294 41.278-3.996 61.654-8.136l15.036 46.908 30.474-9.772-14.318-44.656c28.866-8.054 57.084-19.042 84.18-32.988l26.898 39.708 26.496-17.946-25.4-37.496c25.424-15.508 49.63-33.784 72.2-54.822l34.164 34.164 22.628-22.628-34.166-34.164c21.618-23.19 40.312-48.11 56.088-74.302l37.998 25.738 17.946-26.496-40.366-27.34c13.756-27.092 24.578-55.284 32.464-84.116l45.838 14.698 9.77-30.472-48.244-15.468c3.894-19.656 6.462-39.522 7.708-59.454-10.518-1.096-21.164-1.75-31.914-1.97zM821.922 409.414l-17.058-53.208-30.472 9.77 16.348 50.986c-28.248 7.928-55.88 18.658-82.436 32.232l-30.67-45.282-26.496 17.946 29.128 42.998c-25.824 15.652-50.398 34.154-73.288 55.492l-38.41-38.408-22.624 22.628 38.404 38.406c-20.762 22.27-38.854 46.124-54.228 71.18l-42.496-28.786-17.948 26.496 44.67 30.254c-13.762 26.556-24.678 54.198-32.768 82.482l-49.836-15.98-9.77 30.474 51.902 16.642c-4.894 23.326-7.886 46.964-9.044 70.674 10.378 1.288 20.892 2.136 31.508 2.568 1.014-21.486 3.718-42.668 7.944-63.614l39.488 12.718 9.814-30.424-41.578-13.316c4.102-14.436 8.982-28.676 14.666-42.696 4.352-10.726 9.156-21.206 14.348-31.462l34.63 23.458 17.946-26.492-36.954-25.032c14.418-23.692 31.238-45.914 50.348-66.508l29.458 29.462 22.628-22.626-29.464-29.462c21.204-19.672 44.124-36.926 68.604-51.626l24.704 36.47 26.496-17.946-23.024-33.988c9.554-4.766 19.312-9.178 29.27-13.216 14.708-5.964 29.674-11.042 44.842-15.262l12.968 40.44 30.466-9.77-12.208-38.086c20.232-3.968 40.572-6.622 61.252-7.648-0.43-10.624-1.286-21.144-2.57-31.536-22.972 1.128-45.874 3.97-68.49 8.598z" />
<glyph unicode="&#xf12e;" glyph-name="ios-basket-outline" d="M800 512v192c0 70.4-57.6 128-128 128h-320c-70.4 0-128-57.6-128-128v-192h-160l105-388.6c9.4-34 40.8-59.4 78.2-59.4h529.4c37.4 0 68.8 25 78.6 59l104.8 389h-160zM918 480h0.2l-25.8-96h-156.4v96h182zM140.4 352h147.6v-128h-113l-34.6 128zM320 352h176v-128h-176v128zM704 384h-176v96h176v-96zM496 384h-176v96h176v-96zM496 192v-96h-176v96h176zM528 192h176v-96h-176v96zM528 224v128h176v-128h-176zM736 352h147.8l-34.4-128h-113.4v128zM256 704c0 25.6 10 49.6 28.2 67.8s42.2 28.2 67.8 28.2h320c25.6 0 49.6-10 67.8-28.2s28.2-42.2 28.2-67.8v-192h-512v192zM288 480v-96h-156.2l-26 96h182.2zM200 131.8l-16.4 60.2h104.4v-96h-40.8c-22 0-41.4 14.6-47.2 35.8zM824.6 131.6c-6.2-21-25.8-35.6-47.8-35.6h-40.8v96h104.8l-16.2-60.4z" />
<glyph unicode="&#xf12f;" glyph-name="ios-basket" d="M800 512v192c0 70.4-57.6 128-128 128h-320c-70.4 0-128-57.6-128-128v-192h-160l105-388.6c9.4-34 40.8-59.4 78.2-59.4h529.4c37.4 0 68.8 25 78.6 59l104.8 389h-160zM256 704c0 25.6 10 49.6 28.2 67.8s42.2 28.2 67.8 28.2h320c25.6 0 49.6-10 67.8-28.2s28.2-42.2 28.2-67.8v-192h-512v192zM883.8 352h-147.8v-128h113.4l-8.6-32h-104.8v-96h-32v96h-176v-96h-32v96h-176v-96h-32v96h-104.4l-8.6 32h113v128h-147.6l-8.6 32h156.2v96h32v-96h176v96h32v-96h176v96h32v-96h156.4l-8.6-32zM528 352h176v-128h-176v128zM320 352h176v-128h-176v128z" />
<glyph unicode="&#xf130;" glyph-name="ios-basketball-outline" d="M512 864c-229.726 0-416-186.272-416-416s186.274-416 416-416c229.742 0 416 186.276 416 416s-186.258 416-416 416zM893.328 448c0-0.096-0.004-0.194-0.004-0.29-44.63 3.442-87.978 13.944-129.24 31.398-35.776 15.132-68.906 35.010-98.958 59.268 41.38 59.002 76.884 122.424 105.648 189.43 75.316-69.706 122.554-169.338 122.554-279.806zM745.212 749.478c-0.56-1.352-1.1-2.708-1.67-4.056-27.816-65.766-62.124-127.912-102.572-185.974-3.076 2.898-6.126 5.828-9.126 8.826-38.214 38.214-68.214 82.708-89.166 132.24-17.394 41.126-27.866 84.326-31.342 128.802 0.222 0 0.442 0.008 0.664 0.008 87.768 0.002 168.694-29.822 233.212-79.846zM479.35 827.912c8.862-116.252 62.088-220.082 142.782-294.624-18.99-25.498-39.218-50.152-60.638-73.93-95.108 100.064-209.63 181.492-337.534 238.264 63.272 72.912 153.706 121.628 255.39 130.29zM561.374 412.32c72.458-81.34 130.96-172.876 174.37-272.906-50.8-36.934-111.020-61.658-176.324-69.796-4.544 95.632-39.042 183.414-94.358 254.142 33.904 27.526 66.074 57.106 96.312 88.56zM524.078 419.922c-25.408-25.406-51.954-49.324-79.556-71.74-77.474 85.77-187.662 141.412-310.9 147.27 8.14 65.292 32.864 125.5 69.792 176.292 118.39-51.376 224.89-123.894 316.664-215.666 6.646-6.646 13.18-13.378 19.624-20.178-5.148-5.372-10.348-10.702-15.624-15.978zM131.016 463.54c50.476-2.29 98.872-13.594 142.9-32.218 49.534-20.952 94.026-50.952 132.24-89.166 4.508-4.508 8.89-9.11 13.168-13.79-62.828-47.83-130.854-88.098-203.416-120.364-53.264 65.588-85.236 149.124-85.236 239.998 0 5.208 0.136 10.382 0.344 15.54zM238.134 182.948c71.976 32.868 139.62 73.574 201.828 121.042 22.498-28.744 41.044-60.23 55.36-94.074 19.228-45.458 30.026-93.448 32.228-142.9-5.16-0.208-10.34-0.344-15.55-0.344-107.366 0-204.498 44.622-273.866 116.276zM761.62 159.958c-44.978 101.342-105.44 194.28-178.382 275.818 22.202 24.538 43.268 50.122 63.112 76.672 68.342-54.684 153.042-89.77 245.602-96.726-8.58-101.838-57.33-192.416-130.332-255.764z" />
<glyph unicode="&#xf131;" glyph-name="ios-basketball" d="M512 864c-229.726 0-416-186.272-416-416s186.274-416 416-416c229.742 0 416 186.276 416 416s-186.258 416-416 416zM761.594 159.936c-8.316-7.216-16.96-14.058-25.884-20.544-43.408 100.030-101.876 191.59-174.336 272.93-30.236-31.456-62.406-61.036-96.312-88.56 55.318-70.728 89.832-158.508 94.378-254.138-10.504-1.31-21.142-2.172-31.888-2.606-2.206 49.454-13 97.442-32.228 142.9-14.316 33.844-32.862 65.33-55.36 94.074-62.208-47.466-129.846-88.186-201.82-121.052-7.766 8.022-15.184 16.382-22.23 25.058 72.56 32.268 140.582 72.542 203.41 120.372-4.278 4.68-8.66 9.282-13.168 13.79-38.214 38.214-82.708 68.214-132.24 89.166-44.030 18.624-92.424 29.928-142.9 32.216 0.434 10.758 1.296 21.406 2.606 31.918 123.24-5.858 233.426-61.506 310.9-147.276 27.604 22.416 54.15 46.334 79.556 71.74 5.276 5.276 10.476 10.606 15.624 15.976-6.446 6.8-12.978 13.534-19.624 20.18-91.774 91.772-198.274 164.29-316.664 215.664 6.486 8.922 13.33 17.564 20.544 25.878 127.902-56.774 242.424-138.202 337.534-238.264 21.422 23.778 41.648 48.432 60.638 73.93-80.694 74.542-133.912 178.376-142.776 294.624 10.546 0.898 21.208 1.384 31.98 1.404 3.476-44.476 13.948-87.676 31.342-128.802 20.952-49.534 50.952-94.026 89.166-132.24 3-3 6.050-5.93 9.124-8.826 40.452 58.062 74.758 120.208 102.574 185.974 0.57 1.348 1.11 2.706 1.67 4.056 8.838-6.852 17.362-14.084 25.558-21.67-28.766-67.004-64.264-130.43-105.644-189.432 30.052-24.26 63.182-44.136 98.958-59.27 41.262-17.454 84.61-27.956 129.24-31.396-0.008-10.774-0.486-21.434-1.376-31.982-92.556 6.958-177.262 42.036-245.602 96.718-19.844-26.55-40.91-52.134-63.112-76.672 72.95-81.54 133.382-174.494 178.362-275.838z" />
<glyph unicode="&#xf132;" glyph-name="ios-battery-charging" d="M768 672h-608c-35.2 0-64-28.8-64-64v-320c0-35.2 28.8-64 64-64h608c35.2 0 64 28.8 64 64v320c0 35.2-28.8 64-64 64zM800 288c0-17.6-14.4-32-32-32h-608c-17.6 0-32 14.4-32 32v320c0 17.6 14.4 32 32 32h608c17.6 0 32-14.4 32-32v-320zM740 608h-552c-17.6 0-28-10.4-28-28v-264c0-17.6 10.4-28 28-28h552c17.6 0 28 10.4 28 28v264c0 17.6-10.4 28-28 28zM437.6 344l16.8 86h-54.4l90.4 122-16.8-86h54.4l-90.4-122zM864 558.8v-221.6c38.2 22.2 64 63.4 64 110.8s-25.8 88.6-64 110.8z" />
<glyph unicode="&#xf133;" glyph-name="ios-battery-dead" d="M768 672h-608c-35.2 0-64-28.8-64-64v-320c0-35.2 28.8-64 64-64h608c35.2 0 64 28.8 64 64v320c0 35.2-28.8 64-64 64zM800 288c0-17.6-14.4-32-32-32h-608c-17.6 0-32 14.4-32 32v320c0 17.6 14.4 32 32 32h608c17.6 0 32-14.4 32-32v-320zM864 558.8v-221.6c38.2 22.2 64 63.4 64 110.8s-25.8 88.6-64 110.8z" />
<glyph unicode="&#xf134;" glyph-name="ios-battery-full" d="M768 672h-608c-35.2 0-64-28.8-64-64v-320c0-35.2 28.8-64 64-64h608c35.2 0 64 28.8 64 64v320c0 35.2-28.8 64-64 64zM800 288c0-17.6-14.4-32-32-32h-608c-17.6 0-32 14.4-32 32v320c0 17.6 14.4 32 32 32h608c17.6 0 32-14.4 32-32v-320zM740 608h-552c-17.6 0-28-10.4-28-28v-264c0-17.6 10.4-28 28-28h552c17.6 0 28 10.4 28 28v264c0 17.6-10.4 28-28 28zM864 558.8v-221.6c38.2 22.2 64 63.4 64 110.8s-25.8 88.6-64 110.8z" />
<glyph unicode="&#xf135;" glyph-name="ios-beaker-outline" d="M890.4 864h-633.6c-108.6 0-128.8-55.8-128.8-80.4 60.6-8.4 64-8.4 64-72.4 0-32 0-551 0-551 0-70.6 57.6-128 128.4-128h415.6c70.8 0 126 58.4 126 129v620.4c4 35 25 63.2 27.2 66.6 2.4 3.8 6.8 8.8 6.8 11 0 2.4-0.6 4.8-5.6 4.8zM830 781.4v-620.4c0-26-9.4-48.8-27.4-67.4s-41-29.6-66.4-29.6h-416c-52.8 0-96.2 43.8-96.2 97v550c0 33.4 0.6 61.6-16.6 80.8-8.6 9.6-21.2 12.6-34.6 16.4 11.4 10 35.4 24 84.2 24h587.2c0-0.2-14.2-12.8-14.2-50.8zM766 608v-416c0-20.4-3.6-36-11-43.8-11.4-11.6-27.6-20.4-40.2-20.4h-374c-17.6 0-30.8 5.4-39 15.8-8.8 10.8-13.8 28.6-13.8 50.2v414.2h478zM798 640h-542v-446c0-56.6 27.4-98 84.8-98h374c22.8 0 46.8 13.4 63 30 16.2 16.8 20.2 42.6 20.2 66v448z" />
<glyph unicode="&#xf136;" glyph-name="ios-beaker" d="M340.8 128h374c12.6 0 28.8 8.6 40.2 20.4 7.6 7.8 11 23.2 11 43.8v415.8h-478v-414c0-21.6 5.2-39.4 13.8-50.2 8.2-10.4 21.4-15.8 39-15.8zM890.4 864h-633.4c-108.8 0-129-55.8-129-80.4 60.6-8.4 64-8.4 64-72.4 0-32 0-551 0-551 0-70.6 57.8-128 128.4-128h415.6c70.8 0 126 58.4 126 129v620.4c4 35 25 63.2 27.2 66.6 2.4 3.8 6.8 8.8 6.8 11 0 2.4-0.6 4.8-5.6 4.8zM798 192c0-23.4-3.8-49.2-20.2-66-16.2-16.6-40.4-30-63-30h-374c-57.4 0-84.8 41.4-84.8 98v446h542v-448z" />
<glyph unicode="&#xf137;" glyph-name="ios-beer-outline" d="M767.4 723.4c0 41.6-34.4 76.6-76.2 76.6l-21 1.4c-12 54-64 94.6-118.2 94.6s-82.2-23.2-103.4-57.8c-17 19.6-42.2 30.8-70.4 30.8-36.6 0-68.2-23-83.4-53h-48.8c-50 0-86-39.2-86-90.8v-8c0-57.6 32-41.8 32-79.6 0-35.6 0-213.6 0-213.6 0-26.8-22.4-38.6-22.4-70.4 0-17.6 16-33.6 33.6-33.6h20.8v352h544c0 0-0.6 9.8-0.6 51.4zM735.2 704h-512.8c0 0-15.6 0-21.6 0s-8.8 7.6-8.8 13.2v8c0 17.8 6.8 32.8 16.4 43.8 9.2 10.6 22.8 15 37.6 15h69l8.6 19.2c10 21 30.8 34.4 54.6 34.4 18 0 37-10.2 52.4-22.2l21.4-18.6 16 20c22.6 30 52.8 47.6 84.2 47.6 20.6 0 40-6.8 56-19.8 15.6-12.6 26.6-30.2 30.8-49.6l5.2-23.6c0 0 18.8 0.8 47-3.2s44.2-20.8 44.2-44.8l-0.2-19.4zM616 512c0-22.091-17.909-40-40-40s-40 17.909-40 40c0 22.091 17.909 40 40 40s40-17.909 40-40zM544 416c0-17.673-14.327-32-32-32s-32 14.327-32 32c0 17.673 14.327 32 32 32s32-14.327 32-32zM576 256c0-13.255-10.745-24-24-24s-24 10.745-24 24c0 13.255 10.745 24 24 24s24-10.745 24-24zM192 32h608v-32h-608v32zM832 544h-96v96h-480v-544l-32-32h544l-32 32v128h96c17.6 0 32 14.4 32 32v256c0 17.6-14.4 32-32 32zM704 96h-416v512h416v-512zM832 256c0 0 0 0 0 0h-96v256h96c0 0 0 0 0 0v-256z" />
<glyph unicode="&#xf138;" glyph-name="ios-beer" d="M224 320v352h544c0 0-0.6 9.8-0.6 51.4s-34.4 76.6-76.2 76.6l-21 1.4c-12 54-64 94.6-118.2 94.6s-82.2-23.2-103.4-57.8c-17 19.6-42.2 30.8-70.4 30.8-36.6 0-68.2-23-83.4-53h-48.8c-50 0-86-39.2-86-90.8v-8c0-57.6 32-41.8 32-79.6 0-35.6 0-213.6 0-213.6 0-26.8-22.4-38.6-22.4-70.4 0-17.6 16-33.6 33.6-33.6h20.8zM832 544h-96v96h-480v-544l-64-64v-32h608v32l-64 64v128h96c17.6 0 32 14.4 32 32v256c0 17.6-14.4 32-32 32zM576 552c22 0 40-18 40-40s-18-40-40-40-40 18-40 40 18 40 40 40zM576 256c0-13.2-10.8-24-24-24s-24 10.8-24 24 10.8 24 24 24 24-10.8 24-24zM512 448c17.6 0 32-14.4 32-32s-14.4-32-32-32-32 14.4-32 32 14.4 32 32 32zM832 256v0h-96v256h96v-256z" />
<glyph unicode="&#xf139;" glyph-name="ios-bicycle" d="M250.6 437.4c-102.6 0-186.6-84-186.6-186.6 0-102.8 84-186.8 186.6-186.8s186.6 84 186.6 186.6c0.2 102.8-83.8 186.8-186.6 186.8zM359.8 141.4c-29.4-29.4-68-45.4-109.2-45.4s-79.8 16.2-109.2 45.4-45.4 68.2-45.4 109.2c0 41.2 16.2 79.8 45.4 109.2 29.4 29.4 68 45.4 109.2 45.4s79.8-16.2 109.2-45.4c29.4-29.4 45.4-68 45.4-109.2 0.2-41-16-79.8-45.4-109.2zM639.6 704.4c35.6 0 64 28.4 64 64s-28 63.6-63.6 63.6c-35.6 0-64.4-28-64.4-63.6s28.6-64 64-64zM773.4 437.4c-102.6 0-186.6-84-186.6-186.6s84-186.6 186.6-186.6c102.6 0 186.6 84 186.6 186.6s-84 186.6-186.6 186.6zM882.6 141.4c-29.4-29.4-68-45.4-109.2-45.4s-79.8 16.2-109.2 45.4c-29.4 29.4-45.4 68-45.4 109.2s16.2 79.8 45.4 109.2c29.4 29.4 68 45.4 109.2 45.4s79.8-16.2 109.2-45.4c29.4-29.4 45.4-68 45.4-109.2 0-41-16.2-79.8-45.4-109.2zM736 576h-96l-59 120.2c-11.2 18.6-31.8 31.8-54.2 31.8-16.8 0-33.6-7.4-44.8-18.6l-143.4-138.2c-11.2-11.2-18.6-28-18.6-44.8 0-34.8 25.2-47.2 37-54.2 91-52.4 123-58.2 123-84.4s0-131.8 0-131.8c0-17.6 14.4-32 32-32s32 14.4 32 32c0 0 0 153.6 0 180s-60.8 48-96.6 76l97.8 103c37.4-57 54.6-103 76-103s114.8 0 114.8 0c17.6 0 32 14.4 32 32s-14.4 32-32 32z" />
<glyph unicode="&#xf13a;" glyph-name="ios-bluetooth" d="M572 448l196 174-256.4 274h-31.6v-360l-178.8 154-45.2-50 224-192-224-192 45.2-51.6 178.8 157.6v-362h31.6l0.4 0.8 256 271.2-196 176zM675.6 271l-131.6-141v255.6l131.6-114.6zM544 508.8v257l131.6-142.4-131.6-114.6z" />
<glyph unicode="&#xf13b;" glyph-name="ios-boat-outline" d="M512 64.4c-59.2 0-139.8 13.4-192 31.6 0 0-70-45-160-64 64.6 0 106.6 18 160 32 46-18 133.4-31.6 192-31.6s148 11.6 192 31.6c53.4-14 94-32 160-32-87.6 19-160 64-160 64-52.2-18.2-132.8-31.6-192-31.6zM891 434c0 0 0 0 0 0l-61.4 28.2-46 243.8v0.2c-11 53.2-34.8 93.8-79.6 93.8h-69.2l-16.4 64h-213.4l-16.2-64h-68.8c-45.8 0-70.2-41.4-79.6-94l-46-243.8-61.4-28.2c0 0 0 0 0 0-12.4-5.8-21-18.2-21-32.8 0-4.8 1-9.2 2.6-13.4l109.4-291.8c55 0 113.4 38 113.4 38 39.8-20 121.6-37.6 174.6-37.6s134.8 17.6 174.6 37.6c0 0 58.4-38 113.4-38l109.4 291.8c1.6 4.2 2.6 8.6 2.6 13.4 0 14.6-8.6 27-21 32.8zM429.8 832h163.6l8.2-32h-180l8.2 32zM271.8 700.2c7.6 42 22.2 67.8 48.2 67.8h384c25.6 0 39.4-25.6 48.2-68.2l41.8-221.2-72.8 33.4h0.4c17.8 0 33.6 9.2 30.2 32l-30.2 160c-6 22-14.4 32-32.2 32h-354.6c-17.8 0-27.2-10.6-32.2-32l-30.2-160c-2.6-16 12.4-32 30.2-32h0.4l-73-33.4 41.8 221.6zM512 608l-139.4-64h-67.6l29 153.2c0.8 3.2 1.6 5.4 2.2 6.8h351.6c0.6-1.4 1.6-3.8 2.6-7.4l28.8-152.6h-67.6l-139.6 64zM335.4 170.8l-15.4-10c-11.4-7.4-42.4-24-73.4-30.4l-102.6 270.8c0 2.2 1.6 3.2 2.2 3.6l349.8 163.8v-439.6c-48 3-112.4 17.6-144.2 33.6l-16.4 8.2zM777.4 130.4c-31 6.4-62 23-73.4 30.4l-15.4 10-16.4-8.2c-31.8-16-96.4-30.8-144.2-33.6v439.6l349.8-163.8c0.6-0.4 2.2-1.4 2.2-3.6l-102.6-270.8zM624 428c0-24.301-10.745-44-24-44s-24 19.699-24 44c0 24.301 10.745 44 24 44s24-19.699 24-44zM448 428c0-24.301-10.745-44-24-44s-24 19.699-24 44c0 24.301 10.745 44 24 44s24-19.699 24-44z" />
<glyph unicode="&#xf13c;" glyph-name="ios-boat" d="M704 96c-52.2-18.2-132.8-31.6-192-31.6s-139.8 13.4-192 31.6c0 0-70-45-160-64 64.6 0 106.6 18 160 32 46-18 133.4-31.6 192-31.6s148 11.6 192 31.6c53.4-14 94-32 160-32-87.6 19-160 64-160 64zM891 434c0 0 0 0 0 0l-379 174-379-174c0 0 0 0 0 0-12.4-5.8-21-18.2-21-32.8 0-4.8 1-9.2 2.6-13.4l109.4-291.8c55 0 113.4 38 113.4 38 36-18 106.2-34.2 158.6-37.2 5.6-0.4 11-0.4 16-0.4s10.4 0.2 16 0.4c52.4 3 122.6 19 158.6 37.2 0 0 58.4-38 113.4-38l109.4 291.8c1.6 4.2 2.6 8.6 2.6 13.4 0 14.6-8.6 27-21 32.8zM424 384c-13.2 0-24 19.6-24 44s10.8 44 24 44 24-19.6 24-44-10.8-44-24-44zM600 384c-13.2 0-24 19.6-24 44s10.8 44 24 44 24-19.6 24-44-10.8-44-24-44zM783.8 706v0.2c-11.2 53.2-35 93.8-79.8 93.8h-69.2l-16.4 64h-213.4l-16.2-64h-68.8c-45.8 0-70.2-41.4-79.6-94l-39.4-208.8 68.4 31.4 33.2 175.4c5 21.4 14.6 32 32.2 32h354.2c17.8 0 26.2-10 32.2-32l33.2-175.4 68.6-31.4-39.2 208.8z" />
<glyph unicode="&#xf13d;" glyph-name="ios-body-outline" d="M512 864.082c35.29 0 64-28.702 64-63.982s-28.71-63.98-64-63.98-64 28.702-64 63.98c0 35.28 28.71 63.982 64 63.982zM512 896.072c-53.020 0-96-42.966-96-95.972 0-53.004 42.98-95.97 96-95.97s96 42.966 96 95.97c0 53.006-42.98 95.972-96 95.972v0zM848 672h-672c-26.51 0-48-21.494-48-48s21.49-48 48-48h200.902c11.098 0 26.394-8.59 34.432-29.416 9.302-24.11 4.74-66.66-1.078-102.888l-7.846-42.52c-0.038-0.208-0.41-0.2-0.41-0.406l-64.458-344.476c-4.606-26.102 12.974-50.988 39.080-55.594 2.816-0.496 5.688-0.734 8.436-0.734 22.714 0 41.834 16.38 45.94 39.672l41.002 239.878v-0.332c0 0 14.5 62.816 38.904 62.816h2.192c24.904 0 34.904-62.816 34.904-62.816v0.164l42.966-239.79c4.104-23.284 24.662-39.63 47.526-39.63 2.774 0 5.71 0.242 8.536 0.736 26.106 4.606 43.642 29.52 39.038 55.622l-64.698 344.502c-0.004 0.016 0.022 0.040 0.018 0.054-0.038 0.208-0.064 0.434-0.104 0.644l-7.542 42.822c-5.818 36.238-10.376 78.166-1.076 102.274 8.038 20.828 24.336 29.418 34.434 29.418h200.902c26.51 0 48 21.494 48 48s-21.49 48-48 48zM176 607.774c-8.822 0-16 7.292-16 16.114s7.178 16.114 16 16.114h672c8.822 0 16-7.18 16-16s-7.178-16-16-16h-203c-31.076 0-54.876-29.476-61.964-47.844-9.692-25.114-10.008-63.884-0.776-121.376l-0.018-0.208 0.012-0.22 6.734-38.276 1.124-6.482 64.504-343.256c1-5.668-1.24-9.922-2.664-11.954-1.426-2.034-4.67-5.598-10.358-6.602-0.952-0.166-1.91-0.252-2.854-0.252-7.786 0-14.414 5.278-15.766 12.944l-42.464 239.524h-0.030c-0.542 4-3.656 20.1-10.044 37.542-4.556 12.434-9.688 22.068-15.688 30.010-14.182 18.776-30.478 22.448-41.652 22.448h-2.192c-10.94 0-27.006-3.462-41.42-21.876-6.1-7.792-11.458-17.342-16.38-29.604-7.256-18.074-11.010-35.308-11.416-37.226l-0.22-0.738-41.456-239.8c-1.386-7.772-7.5-13.192-14.882-13.192-0.918 0-1.864 0.086-2.806 0.254-5.68 1-8.91 4.55-10.33 6.576-1.418 2.026-3.648 6.272-2.646 11.95l64.87 345.016 7.594 42.91 0.042 0.252c9.258 57.658 9.054 96.6-0.664 121.782-7.086 18.362-27.152 47.474-63.52 47.474z" />
<glyph unicode="&#xf13e;" glyph-name="ios-body" d="M608 800.324c0-53.019-42.981-96-96-96s-96 42.981-96 96c0 53.019 42.981 96 96 96s96-42.981 96-96zM848 672h-672c-26.51 0-48-21.49-48-48s21.49-48 48-48h196.902c11.158-2 26.394-7.674 34.432-28.504 9.302-24.112 4.74-67.212-1.078-103.454l-7.55-42.79c-0.038-0.208-0.078-0.414-0.116-0.622-0.004-0.016-0.004-0.024-0.008-0.040l-60.75-344.536c-4.606-26.106 12.828-51 38.934-55.606 26.11-4.602 50.666 12.832 55.268 38.942l41.966 239.914v-0.334c0 0 12.5 65.030 36.904 65.030h2.192c24.904 0 36.904-65.030 36.904-65.030v0.166l41.966-239.826c4.602-26.11 29.326-43.498 55.436-38.896 26.106 4.606 43.456 29.524 38.85 55.628l-60.792 344.552c-0.004 0.016-0.026 0.040-0.030 0.054-0.038 0.208-0.088 0.434-0.126 0.644l-7.554 42.828c-5.818 36.242-10.382 79.262-1.082 103.376 8.040 20.828 23.272 26.504 34.43 28.504h196.902c26.51 0 48 21.49 48 48s-21.49 48-48 48z" />
<glyph unicode="&#xf13f;" glyph-name="ios-bonfire-outline" d="M510 255.8l0.2-1.6 0.4-1.8 30.4-152c0.8-2.8 1.2-5.6 1.2-8.4 0-19.2-16.6-28-32-28-9.4 0-17.8 3-23.6 8.4-5.6 5-8.4 11.6-8.4 19.6 0 2.4 0.2 4.6 0.8 7v0.8l31 156zM510 288c-15.2 0-28-10.8-31.2-25v0l-31.2-157c-1-4.6-1.6-9.2-1.6-14 0-35.4 28.6-60 64-60s64 24.6 64 60c0 5.8-0.8 11.4-2.2 16.8l-30 150c-1.4 16.4-15 29.2-31.8 29.2v0zM666 229.8l84-61.2 1.4-0.8c0.6-0.4 2.2-1.8 3.4-2.8 0.8-0.8 1.8-1.4 2.6-2.2 0.8-0.6 2.2-3.4 2.6-7.6 0.2-5.6-1.6-11.2-4.8-14.4-2.8-2.8-7.6-4.6-12.8-4.6s-8.6 1.8-9.6 2.8c-0.4 0.6-1 1.2-1.4 1.8-1 1-2.2 2.4-2.4 3l-1.2 1.6-61.8 84.4zM631.8 287.8c-6 0-11.8-2.4-16.6-7.2-8.2-8.2-9.4-20.8-3.4-30.8l90-123.6c1.8-3 4.4-5.6 6.8-8.4 8-9.2 20.6-14 33.8-14 12.8 0 26 4.6 35.4 14 19.2 19.2 18.8 54 0 69.4-3.4 2.8-6.6 5.8-10.2 7.8l-119.2 87c-5.6 4-11.2 5.8-16.6 5.8v0zM357.8 229.6l-62.4-85.6c-0.6-1-1.4-2-2.4-3-3.2-3.2-7.4-5-12-5s-8.8 1.8-12 5c-6.6 6.6-6.6 17.4 0 24 1 1 2.2 2 3.6 2.8l1.4 0.8 1.4 1 82.4 60zM391.2 288c-5.6 0-11-1.8-15.4-5.6l-119.2-86.8c-3.6-2.2-7.2-4.8-10.2-7.8-19.2-19.2-19.2-50.2 0-69.4 9.6-9.6 22-14.4 34.6-14.4s25 4.8 34.6 14.4c2.6 2.6 4.8 5.4 6.8 8.4l90 123.2c6 10 5 22.4-3.4 30.6-5 5-11.4 7.4-17.8 7.4v0zM558.6 824c18.6-6.8 41-18 61.6-33.2 29.8-21.8 65.2-58.4 65.2-108 0-28.2-4.8-49.4-15.8-68.6-13-23.2-36-45.2-70.4-67.6-14.6-9.6-31.2-18.8-48.8-28.8-59.6-33.6-132-74.2-169.4-151-5.8 4.4-11.8 10-17.8 16.4-27 29.8-37.2 68-30.4 113.4 7.6 49.6 52.4 91.4 99.8 135.6 56.4 51.8 118.8 109.8 126 191.8zM525.4 864c24-161.6-203.4-226-224-362.6s96-181.4 96-181.4c32.6 113.2 144.8 151.2 219.4 199.6 81.4 52.8 100.6 102.6 100.6 163 0 115.2-144.6 181.4-192 181.4v0zM711.4 567.8c-6.6-12.6-14.6-24.4-25-35.8 0 0 2.8-22.2 4-40.8s-1.4-34.2-3.4-40c-13-38-30.2-64.2-52.8-79.6-19.6-13.4-44-19.6-77-19.6-12.8 0-32.8 7.8-48.4 21.8s-22.2 22.4-22.2 22.4c-8.2-7-15-13-22.2-21 22.6-32.8 62.6-55.4 92.6-55.4 72 0 128 27 160 120.8 10.6 29.8 4.4 98.8-5.6 127.2zM374.2 804.2c-3 0-5.8-0.2-8.6-0.6 4.6-57.2-60-88-64-129.6-2.4-25.2 11-50 22-57.6 7.6 9.6 21.4 23.8 21.4 23.8-9 7.4-13.4 25.4-11 33.6s12 19.8 21.2 31c13.4 16.4 30.4 37 38.2 63.2 2.6-1.2 5.2-2.4 7.6-4 5.8-3.4 13.6-7.8 19.4-14.8s11.6-13.8 16.8-23c0 0 12.6 15.8 17.6 25.2-19.2 36.2-53.8 52.8-80.6 52.8zM275.4 289.6l-121-25.2c-11.6-2.4-23.2 4.6-25.8 15.8s4.8 22.2 16.6 24.6c0.6 0.2 1.4 0.2 2 0.4l123 14.6c8.8 1 16.8-5 18-13.4 0.8-7.8-4.8-15-12.8-16.8zM748.6 289.6l121-25.2c11.6-2.4 23.2 4.6 25.8 15.8s-4.8 22.2-16.6 24.6c-0.6 0.2-1.4 0.2-2 0.4l-123 14.6c-8.8 1-16.8-5-18-13.4-0.8-7.8 4.8-15 12.8-16.8z" />
<glyph unicode="&#xf140;" glyph-name="ios-bonfire" d="M541.8 258.8c-1.4 16.4-15.2 29.2-31.8 29.2-15.2 0-28-10.8-31.2-25v0l-31.2-157c-1-4.6-1.6-9.2-1.6-14 0-35.4 28.6-60 64-60s64 24.6 64 60c0 5.8-0.8 11.4-2.2 16.8l-30 150zM611.8 250v0 0zM777.8 187.4c-3.4 2.8-6.6 5.8-10.2 7.8l-119.2 87c-11.6 7.6-24 7.4-33-1.8-8.2-8.2-9.4-20.8-3.4-30.8l90-123.6c1.8-3 4.4-5.6 6.8-8.4 15.6-18.2 50.2-19.2 69.2 0 18.8 19.6 18.6 54.4-0.2 69.8zM745 290v0 0zM870.8 320c-15.6 0-111.2 0-119 0s-14.8-4.4-16.2-12.4c-1.2-7.2 2.6-14.2 9.4-17.6v0c0 0 0.2 0 0.2 0l115.4-35.6c16.6-3.8 35.4 11 35.4 29.6 0 23.6-9.6 36-25.2 36zM278.4 290v0 0zM278.4 290v0c6.6 3.2 10.6 10.4 9.4 17.6-1.4 8-7.8 12.4-16.2 12.4s-103.8 0-119 0-24.6-16.6-24.6-35.2 18.2-34.2 34.8-30.4l115.4 35.6c0 0 0.2 0 0.2 0zM375.8 282.4l-119.2-86.8c-3.6-2.2-7.2-4.8-10.2-7.8-19.2-19.2-19.2-50.2 0-69.2 19.2-19.2 50.2-19.2 69.2 0 2.6 2.6 4.8 5.4 6.8 8.4l90 123.2c6 10 5 22.4-3.4 30.6-9.2 9-23.6 9.6-33.2 1.6zM717.4 682.6c0 115.2-144.8 181.4-192 181.4 24-161.6-203.4-226-224-362.6s96-181.4 96-181.4c32.6 113.2 144.8 151.2 219.4 199.6 81.4 52.8 100.6 102.6 100.6 163zM717.4 440.8c10 29.4 3.8 98.6-6 126.8-18-35-52.6-64.8-94.4-92-17.2-11.2-41.8-21.6-59.6-31.8-37.4-21-68-41.2-92.6-68.8 22.6-32.8 62.6-55.4 92.6-55.4 72 0.4 128 27.4 160 121.2zM323.6 616.2c23.4 30.2 49.8 47.6 76.4 72.4 26.8 25 44.2 42.4 55 62.6-21.4 40.2-61.6 56.2-89.4 52.2 4.6-57.2-60-88-64-129.6-2.6-25.2 10.8-50 22-57.6z" />
<glyph unicode="&#xf141;" glyph-name="ios-book-outline" d="M695.242 832c-81.882 0-158.242-28-183.156-88.99-27.086 60.99-101.27 88.99-183.154 88.99-110.402 0-200.932-51.96-200.932-158v-566h44.28c25.72 52.668 88.476 84 156.65 84 80.448 0 147.754-55.056 163.234-128h39.428c15.478 72.944 82.99 128 163.444 128 68.17 0 122.298-23.332 156.858-84h44.106v566c0 106.040-90.354 158-200.758 158zM496 138.148c-36 51.742-97.46 85.852-167 85.852-69.538 0-129-20.11-167-71.852l-2-1.074v526.926c6 83.65 80.178 122 168.586 122 90.324 0 164.29-37.416 166.726-123.616-0.034-1.458 0.032-2.918 0.032-4.384l0.656-26.206v-507.646zM864 664v-511.852c-36 51.742-99.462 71.852-169 71.852-69.54 0-131-34.11-167-85.852v533.852c0 88.224 75.318 128 167.174 128 88.406 0 162.826-22.35 168.826-106v-30z" />
<glyph unicode="&#xf142;" glyph-name="ios-book" d="M328.932 832c-110.4 0-200.932-51.96-200.932-158v-566h44.282c25.72 52.668 88.476 84 156.65 84 80.448 0 147.754-55.056 163.232-128h3.836v705.308c-34.48 42.79-98.038 62.692-167.068 62.692zM695.242 832c-68.664 0-133.426-19.702-167.242-62.022v-705.978h3.594c15.478 72.944 82.99 128 163.444 128 68.17 0 122.298-23.332 156.858-84h44.104v566c0 106.040-90.354 158-200.758 158z" />
<glyph unicode="&#xf143;" glyph-name="ios-bookmark-outline" d="M256 864v-832l256 192.8 256-192.8v832h-512zM736 96l-224 168.6-224-168.6v736h448v-736z" />
<glyph unicode="&#xf144;" glyph-name="ios-bookmark" d="M256 864v-832l256 192.8 256-192.8v832h-512z" />
<glyph unicode="&#xf145;" glyph-name="ios-bookmarks-outline" d="M864 832h-300.8c-20.6 0-38.6-9.2-51.2-23.4v0 0c-12.4 14.4-30.6 23.4-51.2 23.4h-300.8c-37.6 0-66-26.6-66-64v-572.2c0-37.6 28.4-67.8 66-67.8 0 0 259 0 286.6 0s49.4-8.4 49.4-38.8c0-18.2 0-25.2 0-25.2h32c0 0 0 6.8 0 25.2 0 30.6 21.8 38.8 49.4 38.8s286.6 0 286.6 0c37.6 0 66 30.2 66 67.8v572.2c0 37.4-28.4 64-66 64zM496 137.8c-9.4 15.6-27 22.2-47.6 22.2h-288.4c-18.8 0-32 17-32 35.8v572.2c0 18.8 13.2 32 32 32 0 0 261.2 0 286.6 0 25.6 0 49.4-25.6 49.4-44.4v-617.8zM640 800c37.6 0 86 0 128 0v-200.8l-45.8 29-18.2 12.8-18.2-12.8-45.8-29v200.8zM896 195.8c0-18.8-13.2-35.8-32-35.8h-288.4c-20.6 0-38.2-4.6-47.6-22.2v617.8c0 18.8 23.8 44.4 49.4 44.4 4.4 0 15.4 0 30.6 0v-262l96 64 96-64v262c37.2 0 64 0 64 0 18.8 0 32-13.4 32-32v-572.2z" />
<glyph unicode="&#xf146;" glyph-name="ios-bookmarks" d="M685.8 629.2l18.2 12.8 18.2-12.8 45.8-29v231.8c-41.4 0-89 0-128 0v-231.8l45.8 29zM864 832c0 0-26.6 0-64 0v-293l-96 64-96-64v293c-24.2 0-41.2 0-44.8 0-16.2 0-35.2-14.4-35.2-30s0-658 0-658l-16-11-16 11c0 0 0 644 0 658s-18.4 30-35.2 30-300.8 0-300.8 0c-37.6 0-66-26.6-66-64v-572.2c0-37.6 28.4-67.8 66-67.8 0 0 259 0 286.6 0s49.4-8.4 49.4-38.8c0-18.2 0-25.2 0-25.2h32c0 0 0 6.8 0 25.2 0 30.6 21.8 38.8 49.4 38.8s286.6 0 286.6 0c37.6 0 66 30.2 66 67.8v572.2c0 37.4-28.4 64-66 64z" />
<glyph unicode="&#xf147;" glyph-name="ios-bowtie-outline" d="M534.4 556c0 0 0 0 0 0-14 0-29.8-2.6-46.6-5.8-23.8-4.6-40-14.2-40-14.2s7-54.6 0-117c-7-62.4-16-85-16-85s10.4-24.2 80-30c7.8-0.6 15.2-1 22-1 49 0 72.8 14.6 72.8 14.6s7.2 10.8 9.2 44.4c3.8 64.2-13.4 136.8-33 171-9.6 17.2-26.8 23-48.4 23zM583.8 364c-0.6-10.2-1.8-17.4-2.8-22.2-9-3-24.6-6.6-47.2-6.6-6.2 0-12.8 0.2-19.4 0.8-23.8 2-38 6.2-46.2 9.6 3.4 14.8 7.8 37.6 11.4 69.8 4.4 40.2 3.6 77 2.2 100 3.6 1.2 7.8 2.2 12.2 3 12.2 2.4 27.6 5 40.4 5v0 0 0c16.8 0 19.4-4.4 20.6-6.6 8.2-14.2 16.2-38.6 21.8-64.8 6.2-29.8 8.6-61.2 7-88zM168.8 736c-53 0-104.8-137-104.8-288s46-288 103-288c66.8 0 233 160 233 160s11.4 25.2 19.8 67.2l3.6 20.8c1.4 9.4 2.6 19.4 3.4 30 0.6 7 1 13.6 1.2 19.8l0.6 19.6c1.6 32-5 65.2-5 65.2-44.2 80.4-184.6 193.4-254.8 193.4zM288.4 265c-86.6-69.4-116.2-73-121.4-73-6.4 0-25.2 16.2-42.6 66-18 51.4-28.4 120.6-28.4 190 0 66 10.6 133.8 29.2 185.8 19.8 55.4 39.6 69.6 43.6 70.2 6.6 0 22-2 49-15.6 21.2-10.6 44.8-25.8 68.6-44.4 46.2-35.8 86.6-78.6 106.4-112.6 1.4-8.2 3.8-26.2 3.8-44.4-16.2 7-41.8 15.8-77.4 22.8-56 11-84.8 6.2-86 6-1.8-0.4-3.2-2-3.4-3.8 0-2 1.4-3.6 3.2-4 0.4 0 37.6-7.6 113.8-33.8 17-5.8 28.6-10 38-13.4 4-1.4 7.4-2.6 10.8-3.8-0.2-5.6-0.6-11-1-16.6-0.8-9-1.8-18.4-3-27.4l-1-5.6c-11-4-26.2-9-43.4-13.6-34-9-76-20-76-20-2-0.6-3.2-2.4-3-4.6 0.4-2 2.2-3.4 4.2-3.4 3.2 0.2 70.8 5.4 112.6 13.6-4.6-19.6-9.6-34-12.4-41.2-11.8-11.2-45.6-42.4-84.2-73.2zM855.2 736c-72.8 0-204.8-113-248.6-193.6l-1.6-2.8c0 0 2.8-5 3.8-6.8 6.8-12 13.4-28.6 18.8-48l5.8-23.4c4.4-20.4 7.4-42.4 8.4-64.4l0.4-18c0-5.8-0.2-11.4-0.6-17-2-33.4-9.2-44.2-9.2-44.2 15.2-21 150-157.8 224.4-157.8 57 0 103 137 103 288s-51.6 288-104.6 288zM857 192c-22.8 0-65.4 23.8-114.2 63.8-32.4 26.6-59.6 53.6-74 69 2.2 9 3.8 20.6 4.8 35.4 0.2 3.2 0.4 6.6 0.4 10 42.2-11.4 120.4-19.2 124.2-19.6 0.2 0 0.2 0 0.4 0 1.8 0 3.6 1.4 4 3.2 0.4 2-0.8 4-2.8 4.6-0.4 0.2-43.4 13.2-81 23-17.6 4.6-33.2 9.8-44.8 14.2v2.2l0.2 0.4v0.4c-1.8 21.4-4 44-8.4 65.6 40.8 22.6 126 61 127 61.4 1.8 0.8 2.8 2.8 2.2 4.8s-2.4 3.2-4.4 2.8c-0.4 0-30.8-5.2-70.6-19.2-20.2-7-42.6-14.8-61-21.2l-0.4 1.2c-4.8 17.2-10.6 32.8-16.8 45.4 21.2 33.4 57.8 72.6 98.4 105.4 54.4 43.8 95 59.4 115 59.4 4-0.6 23.8-14.6 43.6-70.2 18.6-52.2 29.2-120 29.2-185.8 0-69.4-10.4-138.6-28.4-190-17.4-50-36.2-66.2-42.6-66.2z" />
<glyph unicode="&#xf148;" glyph-name="ios-bowtie" d="M581.6 533c-9.6 17-27.6 22.6-49.6 22.6v0.4c-12 0-28.6-2.6-45.2-5.8-23.8-4.6-39.4-14.2-39.4-14.2s7.2-54.6 0.2-117c-7-62.4-15.8-85-15.8-85s10.6-24.2 80-30c7.8-0.6 15.2-1 22-1 49 0 72.8 14.6 72.8 14.6s6.6 10.8 8.6 44.2c3.8 64.4-14 137-33.6 171.2zM423.4 542.4c-44 80.4-184.4 193.6-254.6 193.6-53 0-104.8-137-104.8-288s46-288 103-288c66.8 0 233 160 233 160s11.4 25.2 19.8 67.2l3.6 20.8c1.4 9.4 2.6 19.4 3.4 30 0.6 7 1 13.6 1.2 19.8l0.6 19.6c1.4 32-5.2 65-5.2 65zM230 512c0 2 1.4 3.6 3.4 3.8 1.2 0.2 29.8 5 86-6 42-8.2 70.2-19.2 85.4-26.4l-2.6-28.6c-5.2 1.8-10.6 3.6-17 6-9.4 3.4-21 7.4-38 13.4-76.2 26.2-113.4 33.8-113.8 33.8-2 0.4-3.4 2.2-3.4 4zM395 381.8c-40.2-9.4-118.8-15.4-122.2-15.6-2-0.2-4 1.2-4.2 3.4-0.4 2 1 4 3 4.6 0 0 42 11 76 20 23 6 42.2 13 52.8 17l-5.4-29.4zM855.2 736c-72.8 0-204.8-113-248.6-193.6l-1.6-2.8c0 0 2.8-5 3.8-6.8 6.8-12 13.4-28.6 18.8-48l5.8-23.4c4.4-20.4 7.4-42.4 8.4-64.4l0.4-18c0-5.8-0.2-11.4-0.6-17-2-33.4-9.2-44.2-9.2-44.2 15.2-21 150-157.8 224.4-157.8 57 0 103 137 103 288s-51.6 288-104.6 288zM719.6 513.8c39.8 14 70.4 19.2 70.6 19.2 2 0.4 4-0.8 4.4-2.8 0.6-2-0.4-4-2.2-4.8-1-0.4-101.4-45.8-136.4-67 0 0 0-0.4 0-0.4v0c0 0 0 0.2 0 0.4l-7.6 30.6v0.2c20 6.6 47 16.2 71.2 24.6zM802.4 353.8c-0.4-1.8-2-3.2-4-3.2-0.2 0-0.2 0-0.4 0-4.2 0.4-98.8 9.8-136 23.2-4 23.2 1.8 24.8 1.8 25.8 11.8-4.6 31.6-11.8 54.8-18 37.6-10 80.6-23 81-23 2-0.8 3.2-2.8 2.8-4.8z" />
<glyph unicode="&#xf149;" glyph-name="ios-briefcase-outline" d="M832 704v32h-64v-32h-96v64c-1 36.4-27.2 64-64.4 64h-198.2c-37.2 0-57.4-27.4-57.4-64v-64h-96v32h-64v-32h-96v-640h832v640h-96zM384 705v58.8c0 20.4 5.8 36.2 27.4 36.2h194.2c20.8 0 34.4-15.4 34.4-36.2v-59.8h-256v1zM896 96h-768v448h768v-448zM896 576h-768v96h64v-32h64v32h512v-32h64v32h64v-96z" />
<glyph unicode="&#xf14a;" glyph-name="ios-briefcase" d="M192 736h64v-32h-64v32zM96 544h832v-480h-832v480zM768 736h64v-32h-64v32zM832 704v-64h-64v64h-96v64c-1 36.4-27.2 64-64.4 64h-198.2c-37.2 0-57.4-27.4-57.4-64v-64h-96v-64h-64v64h-96v-128h832v128h-96zM640 705v-1h-256v59.8c0 20.4 5.8 36.2 27.4 36.2h194.2c20.8 0 34.4-15.4 34.4-36.2v-58.8z" />
<glyph unicode="&#xf14b;" glyph-name="ios-browsers-outline" d="M128 672v-608h607.8v608h-607.8zM703.8 96h-543.8v544h543.8v-544zM896 832h-608v-128h32v96h544v-544h-96v-32h128z" />
<glyph unicode="&#xf14c;" glyph-name="ios-browsers" d="M128 672v-608h607.8v608h-607.8zM288 832v-128h480v-480h128v608z" />
<glyph unicode="&#xf14d;" glyph-name="ios-brush-outline" d="M299 393.4c-103.8 0-167.8-91.4-167.8-190.2 0-45.4-20.2-78.4-67.2-96.2 28.6-55.6 124-75 191.4-75 16.8 0 31.8 1.2 43.6 3.4 71.2 12.8 160.2 49.8 181.4 154 24.6 121.2-77.6 204-181.4 204zM449 195.6c-8-39.2-27.2-69-59-91.4-25.2-17.8-57.6-30.4-96.6-37.4-7.2-1.2-19.6-2.8-38-2.8-50.8 0-108.2 11.6-141 34.2 32 24.4 48.8 60 48.8 104.8 0 42 13.8 82.8 37.6 111.8 17.4 21.2 48.6 46.4 98.2 46.4 48.4 0 96.2-21.8 124.8-56.6 17.2-21.2 35.6-57.2 25.2-109zM935.2 839.2c-15.4 15.4-33.6 24.8-52.2 24.8-12.6 0-25.4-4.4-37.6-14l-350.2-308.2c-6.8 1.8-13.2 2.8-19.4 2.8-9.6 0-18.6-2.4-26.4-7.6l-127.2-105.6c-3.2-3.2-3-8.6 0.2-11.8 1-1 2.2-1.6 3.4-2 1.2 0 2.6-0.2 3.8-0.2 0 0 0 0 0.2 0 95.8-6.8 184-75.6 180.6-181 0-1 0-2-0.2-3 0.2-1.6 1-3.4 2.2-4.6 1.6-1.6 3.8-2.4 5.8-2.4s4.2 0.8 5.8 2.4c0 0 0 0 0.2 0 0.2 0.2 0.2 0.2 0.4 0.4l108.6 124.4c8.4 12.8 9.4 28.4 4.8 45.8l308.4 350c23.4 30 14.8 64-11.2 89.8zM921.4 770l-319.2-362.4 4.6-16.6c2.2-8 2.2-14.2 0.2-18.4l-70.8-81c-9.2 36.4-28.8 69.4-57.4 96-26.6 24.6-59.6 42.8-95.8 53l85 70.4c1.6 0.8 3.8 1.6 7.6 1.6 3.2 0 7-0.6 11-1.6l16.6-4.6 362.8 319c5.8 4.4 11.4 6.6 17 6.6 9.2 0 19.8-5.4 29.6-15.4 8.4-8.4 13.8-17.6 15-25.8 0.8-4.4 1-11.6-6.2-20.8zM322.2 431.6v0 0z" />
<glyph unicode="&#xf14e;" glyph-name="ios-brush" d="M299 393.4c-103.8 0-167.8-91.4-167.8-190.2 0-45.4-20.2-78.4-67.2-96.2 28.6-55.6 124-75 191.4-75 16.8 0 31.8 1.2 43.6 3.4 71.2 12.8 160.2 49.8 181.4 154 24.6 121.2-77.6 204-181.4 204zM935.2 839.2c-15.4 15.4-33.6 24.8-52.2 24.8-12.6 0-25.4-4.4-37.6-14l-350.2-308.2c-6.8 1.8-13.2 2.8-19.4 2.8-9.6 0-18.6-2.4-26.4-7.6l-127.2-105.6c-3.2-3.2-3-8.6 0.2-11.8 1-1 2.2-1.6 3.4-2 1.2 0 2.6-0.2 3.8-0.2 0 0 0 0 0.2 0 95.8-6.8 184-75.6 180.6-181 0-1 0-2-0.2-3 0.2-1.6 1-3.4 2.2-4.6 1.6-1.6 3.8-2.4 5.8-2.4s4.2 0.8 5.8 2.4c0 0 0 0 0.2 0 0.2 0.2 0.2 0.2 0.4 0.4l108.6 124.4c8.4 12.8 9.4 28.4 4.8 45.8l308.4 350c23.4 30 14.8 64-11.2 89.8zM322.2 431.6v0 0z" />
<glyph unicode="&#xf14f;" glyph-name="ios-bug-outline" d="M912 448c-9.2 0-18-2.6-25.2-7.2-10.8 4.8-28.8 10.6-54.8 12.2-0.6 55.4-11 108-29.2 155.4 17 12.6 31.6 28.8 42.6 47.6 0.8 0 1.8 0 2.6 0 26.4 0 48 21.4 48 48s-21.4 48-48 48c-26.4 0-48-21.4-48-48 0-14 6-26.6 15.6-35.4-6-9.6-14.6-20.2-26-29.8-55 115.4-158.8 193.2-277.6 193.2s-222.6-77.8-277.8-193c-11.4 9.6-19.8 20.2-25.8 29.8 9.6 8.8 15.6 21.4 15.6 35.4 0 26.6-21.4 48-48 48s-48-21.4-48-48c0-26.6 21.4-48 48-48 0.8 0 1.8 0 2.6 0 11.2-18.8 25.6-35 42.6-47.6-18.2-47.4-28.6-100-29.2-155.6-26.2-1.6-44-7.4-54.8-12.2-7.4 4.6-16 7.2-25.2 7.2-26.6 0-48-21.4-48-48s21.4-48 48-48 48 21.4 48 48c0 5-0.8 9.8-2.2 14.4 8 2.6 19.6 5.4 35 6.6 4.6-78 28.4-149.6 66-207.8-12-9-29.2-26-39.8-53.4-24.2-2.6-43-23-43-47.8 0-26.6 21.4-48 48-48s48 21.4 48 48c0 16.8-8.6 31.4-21.6 40 7.8 18 19 29 26.8 35 55-71.4 132.4-117.4 218.8-122.6 2.4-0.2 4.4-0.2 6.4-0.2 0.6 0 1.4 0 2 0 2.4 0 4.8-0.2 7.4-0.2 0 0 0 0 0 0s0 0 0 0 0 0 0 0c2.6 0 5 0 7.4 0.2 0.6 0 1.4 0 2 0 2 0 4.2 0.2 6.6 0.2v0c86.4 5.2 163.8 51.4 218.8 122.6 7.8-6 19-17 27-35.2-13-8.6-21.6-23.4-21.6-40 0-26.6 21.4-48 48-48 26.4 0 48 21.4 48 48 0 24.8-18.8 45.2-43 47.8-10.8 27.6-27.8 44.4-39.8 53.6 37.6 58.2 61.4 129.8 66 207.6 15.4-1 27-3.8 35-6.6-1.4-4.6-2.2-9.4-2.2-14.4 0-26.6 21.4-48 48-48s48 21.4 48 48-21.4 48.2-48 48.2zM848.2 720c8.8 0 16-7.2 16-16s-7.2-16-16-16c-8.8 0-16 7.2-16 16s7 16 16 16zM176 688c-8.8 0-16 7.2-16 16s7.2 16 16 16 16-7.2 16-16c0-8.8-7.2-16-16-16zM112 384c-8.8 0-16 7.2-16 16s7.2 16 16 16 16-7.2 16-16c0-8.8-7.2-16-16-16zM224 96c-8.8 0-16 7.2-16 16s7.2 16 16 16 16-7.2 16-16c0-8.8-7.2-16-16-16zM800.2 128c8.8 0 16-7.2 16-16s-7.2-16-16-16c-8.8 0-16 7.2-16 16s7.2 16 16 16zM512 800c88.8 0 168.4-49.4 221.4-127-11-18.8-24.4-36.4-40.4-52.2-48.4-48.4-112.6-75-181-75s-132.6 26.6-181 75c-15.8 15.8-29.4 33.4-40.4 52.2 53 77.6 132.6 127 221.4 127zM224 448c0 71.8 17.8 138.8 48 194.4 49-73.4 130.8-123.2 224-128.2v-417.8c-151.4 10.4-272 164-272 351.6zM528 96.6v417.6c93 5.2 175 54.8 224 128.2 30.4-55.8 48-122.6 48-194.6 0-187.4-120.6-341-272-351.2zM912 384c-8.8 0-16 7.2-16 16s7.2 16 16 16 16-7.2 16-16c0-8.8-7.2-16-16-16z" />
<glyph unicode="&#xf150;" glyph-name="ios-bug" d="M749.2 705.4c-58.4 77.6-143 126.6-237.2 126.6s-178.8-49-237.2-126.6c12.8-31.2 31.6-60 56.2-84.6 48.4-48.4 112.6-75 181-75s132.6 26.6 181 75c24.6 24.6 43.6 53.2 56.2 84.6zM253.6 674.4c-3.4-5.6-6.8-11.4-10-17.2-5.8 3.6-10.6 7.4-15.4 11.6-2.4 2-6 7.8-9 14.8 10.8 22.6 2.4 50-19.8 62.6-23.2 13-52.4 4.8-65.4-18.4s-4.8-52.4 18.4-65.4c2.6-1.4 5-2.6 7.6-3.4 5.6-12.6 14.6-28.6 27-39 8.4-7 17.6-14.2 30.4-21.4-14.4-40.6-23.2-84.6-25-130.8-22-0.4-37.2-4.2-51-8.2-8.4-2.4-16.4-6.8-23.6-11.8-2 0.2-3.8 0.4-5.8 0.4-26.6 0-48-21.4-48-48s21.4-48 48-48c25.8 0 47 20.4 48 46 10 3 19.8 5.4 34.2 5.6 6.4-66 26.6-127 57.2-178.4-28.4-22-45.8-46-53.2-72.6 0 0-1.6-0.8-3.8-2.8-2-1.6-3.8-3.2-5.6-5.2-17.8-19.8-16.2-50 3.6-67.8s50-16.2 67.8 3.6c16.2 18 16.2 44.8 1.2 62.8 6.2 11.2 12.4 18 27.4 30 54.2-63.4 126.8-104 207.4-108.8v449.6c-106.6 5.8-197.8 69.6-242.6 160.2zM912 447.8c-2 0-4-0.2-5.8-0.4-7.2 5-15.4 9.2-23.6 11.8-13.8 4-28.8 7.8-51 8.2-2 46.2-10.8 90.4-25 130.8 12.8 7.2 22 14.4 30.4 21.4 12.4 10.4 21.4 26.6 27 39 2.6 1 5.2 2 7.6 3.4 23.2 13 31.4 42.2 18.4 65.4s-42.2 31.4-65.4 18.4c-22.2-12.4-30.6-39.8-19.8-62.6-3.2-6.8-6.8-12.8-9-14.8-4.8-4-9.6-7.8-15.4-11.6-3.2 5.8-6.6 11.6-10 17.2-44.8-90.6-135.8-154.2-242.4-160v-450c80.6 4.8 153.2 45.6 207.4 108.8 14.8-11.8 21.2-18.8 27.4-30-15-18-15-44.8 1.2-62.8 17.8-19.8 48-21.4 67.8-3.6s21.4 48 3.6 67.8c-1.8 2-3.6 3.6-5.6 5.2-2.2 1.8-3.8 2.8-3.8 2.8-7.4 26.6-24.8 50.6-53.2 72.6 30.6 51.4 50.8 112.4 57.2 178.4 14.4-0.2 24-2.6 34.2-5.6 1-25.6 22-46 48-46 26.6 0 48 21.4 48 48s-21.6 48.2-48.2 48.2z" />
<glyph unicode="&#xf151;" glyph-name="ios-build-outline" d="M695.8 832v0c8 0 18-2 28-6l-89.4-89.8 3-16.4 18.4-102.4 4-21.8 21.8-4 119-21.6 11.8 11.8 78 78.4c6-14.2 6-26 5.8-30.8-1.4-24-11.4-61-50-99.6-29.8-29.8-78.6-49.8-121.6-49.8-19 0-35.8 3.8-50 11.2v0 0c-7 3.6-18 8.4-31.8 8.4-11.2 0-28-3.4-44.6-19.4-18-17.6-362.6-384.8-377.4-400.4l-0.8-0.8c-11.4-13.2-26.8-15.2-35-15.2-14.8 0-29.4 6-40.2 16.4-10.8 11-17 26.8-16.4 42.4 0.4 9.2 3.2 22.4 15 32.4l1.2 0.8c15.6 14.8 384.6 362.2 399.8 377.2v0 0c15.8 15.8 19.2 32.4 19.4 43.6 0 13.8-4.8 25.2-7 30.8v0 0c-36.4 85.4 20.4 155.2 38.8 174.4v0 0c34.6 36.8 79.4 48.4 98.4 49.4 0 0.8 0.8 0.8 1.8 0.8zM695.8 864c-1.4 0-2.8 0-4-0.2-25-1.4-78.6-15.4-120-59.4-40.2-42.4-82.2-121.2-45-209 4.4-10.6 9.4-24.6-5.4-39.4-15.2-14.8-399.4-376.6-399.4-376.6-36-31-33.4-88.4-0.2-121.8 17-16.8 40-25.6 62.6-25.6 22.2 0 43.8 8.4 59.2 26.2 0 0 358.8 382.2 376.4 399.6 8 7.8 15.4 10.2 22.2 10.2 6.6 0 12.6-2.4 17.2-4.8 19.8-10.2 42-14.8 64.8-14.8 53.6 0 110 24.8 144.4 59.2 48.8 48.8 57.8 96 59.2 120.2 1.4 24-6.8 55.8-33.4 82.2l-105-105.4-102.4 18.6-18.4 102.4 105 105.4c-22.2 22.2-53.6 33-77.8 33v0zM205 101.4c-11-10.8-28.8-10.8-39.8 0-10.8 11-10.8 28.8 0 39.8 11 10.8 28.8 10.8 39.8 0 10.8-11.2 10.8-29 0-39.8z" />
<glyph unicode="&#xf152;" glyph-name="ios-build" d="M894.4 710l-105-105.4-102.4 18.6-18.4 102.4 105 105.4c-22.2 22.2-53.6 33-77.8 33-1.4 0-2.8 0-4-0.2-25-1.4-78.6-15.4-120-59.4-40.2-42.4-82.2-121.2-45-209 4.4-10.6 9.4-24.6-5.4-39.4-15.2-14.8-399.4-376.6-399.4-376.6-36-31-33.4-88.4-0.2-121.8 17-16.8 40-25.6 62.6-25.6 22.2 0 43.8 8.4 59.2 26.2 0 0 358.8 382.2 376.4 399.6 8 7.8 15.4 10.2 22.2 10.2 6.6 0 12.6-2.4 17.2-4.8 19.8-10.2 42-14.8 64.8-14.8 53.6 0 110 24.8 144.4 59.2 48.8 48.8 57.8 96 59.2 120.2 1.6 23.8-6.8 55.6-33.4 82.2z" />
<glyph unicode="&#xf153;" glyph-name="ios-bulb-outline" d="M800 582.4c0 155.8-132.2 281.6-288 281.6s-288-125.8-288-281.6c0-62.2 26.4-118.2 60.4-166.2h-0.6c21.8-30 42.8-55.4 63-90 44-75.6 37.2-148.6 37.4-163v-3h256v3c0 17.8-7.2 87.4 36.8 163 20.2 34.6 41.2 60 63 90h-0.2c33.8 47.8 60.2 104 60.2 166.2zM702 419.4c-1.2-1.6-2.2-3-3.4-4.6-16.2-21.8-33-44.4-49.4-72.4-34.6-59.4-40.8-116.4-41.6-150.4h-31.6v224.2l64 127.8h-33.2l-62.8-127.8v-224.2h-64v224.2l-62.8 127.8h-33.2l64-127.8v-224.2h-31.8c-1 34-7.8 91.4-41.8 150-9 15.4-18.2 30-27.4 42h0.4l-37.2 51.2c-31.6 43.2-54.2 94.2-54.2 147.2 0 66.8 32 129.8 79.2 177s110 73 176.8 73 129.6-25.6 176.8-72.8c47.2-47.2 79.2-110 79.2-176.8 0-53-22.6-103.8-54.2-147.2l-11.8-16.2zM448 64h128v-32h-128v32zM416 128h192v-32h-192v32z" />
<glyph unicode="&#xf154;" glyph-name="ios-bulb" d="M800 582.2c0 155.8-132.2 281.8-288 281.8s-288-126.2-288-281.8c0-62 26.4-118.2 60.4-166.2h-0.6c21.8-30 42.8-55.4 63-90 44-75.6 37.2-148.6 37.4-163v-3h64v256.2l-64.2 127.8h33.2l62.8-127.8v-256.2h64v256.2l62.8 127.8h33.2l-64-127.8v-256.2h64v3c0 17.8-7.2 87.4 36.8 163 20.2 34.6 41.2 60 63 90h-0.2c34 48 60.4 104.2 60.4 166.2zM448 64h128v-32h-128v32zM416 128h192v-32h-192v32z" />
<glyph unicode="&#xf155;" glyph-name="ios-bus-outline" d="M832 128c-17-37.4-48-32-127.8-32 0-21-2.2-32 6.6-32s100.8 0 110.2 0 8.4 7.6 11 64zM192 128c3-56.8 1.6-64 11-64s101.4 0 110.2 0c8.8 0 6.6 11 6.6 32-79.8 0-100.8-6-127.8 32zM752 256c0-26.51-21.49-48-48-48s-48 21.49-48 48c0 26.51 21.49 48 48 48s48-21.49 48-48zM368 256c0-26.51-21.49-48-48-48s-48 21.49-48 48c0 26.51 21.49 48 48 48s48-21.49 48-48zM768 832h-512c-35.2 0-64-28.8-64-64v0-560c0-44 36-80 80-80h480c44 0 80 36 80 80v560c0 35.2-28.8 64-64 64zM800 208c0-26.4-21.6-48-48-48h-480c-26.4 0-48 21.6-48 48v144h576v-144zM224 416v255.6c0 17.6 14.8 32.4 32.4 32.4h239.6v-320h-239.6c-17.6 0-32.4 14.4-32.4 32zM800 416c0-17.6-14.4-32-32-32h-240v320h240c17.6 0 32-14.8 32-32.4v-255.6zM768 736h-512c-17.6 0-32 14.4-32 32s14.4 32 32 32h512c17.6 0 32-14.4 32-32s-14.4-32-32-32z" />
<glyph unicode="&#xf156;" glyph-name="ios-bus" d="M704.2 96c0-21-2.2-32 6.6-32s100.8 0 110.2 0 8.2 7.6 11 64c-17-37.4-48-32-127.8-32zM192 128c3-56.8 1.6-64 11-64s101.4 0 110.2 0c8.8 0 6.6 11 6.6 32-79.8 0-100.8-6-127.8 32zM768 832h-512c-35.2 0-64-28.8-64-64v0-560c0-44 36-80 80-80h480c44 0 80 36 80 80v560c0 35.2-28.8 64-64 64zM320 208c-26.6 0-48 21.4-48 48s21.4 48 48 48 48-21.4 48-48-21.4-48-48-48zM496 384h-239.6c-17.6 0-32.4 14.4-32.4 32v255.6c0 17.6 14.8 32.4 32.4 32.4h239.6v-320zM704 208c-26.6 0-48 21.4-48 48s21.4 48 48 48 48-21.4 48-48-21.4-48-48-48zM800 416c0-17.6-14.4-32-32-32h-240v320h240c17.6 0 32-14.8 32-32.4v-255.6zM768 736h-512c-17.6 0-32 14.4-32 32s14.4 32 32 32h512c17.6 0 32-14.4 32-32s-14.4-32-32-32z" />
<glyph unicode="&#xf157;" glyph-name="ios-cafe-outline" d="M64 160h896v-32h-896v32zM400 192c30 0 131.4 0 160 0 17.6 0 116 24 189.4 160.8 6.2-0.6 12.4-0.8 18.6-0.8 106 0 192 78.8 192 176 0 77.2-54.2 142.8-129.8 166.6 1.2 23.4 1.8 47.8 1.8 73.4h-704c0-512 242-576 272-576zM928 528c0-79.4-71.8-144-160-144-1 0-2.2 0-3.2 0 30.4 67.2 54.4 157.2 63.4 277.4 58.4-21.4 99.8-73.2 99.8-133.4zM160.4 736h639.2c-2.2-98.4-14.6-185.8-36.8-260.2-19.4-64.8-46.4-119.8-80.2-163.4-49-63.4-101.6-88.4-121.4-88.4s-136.6 0-160.2 0-74.4 25.2-123.4 88.4c-33.8 43.6-60.8 98.6-80.2 163.4-22.4 74.4-34.8 161.8-37 260.2z" />
<glyph unicode="&#xf158;" glyph-name="ios-cafe" d="M64 160h896v-32h-896v32zM400 192c30 0 131.4 0 160 0 17.6 0 116 24 189.4 160.8 6.2-0.6 12.4-0.8 18.6-0.8 106 0 192 78.8 192 176 0 77.2-54.2 142.8-129.8 166.6 1.2 23.4 1.8 47.8 1.8 73.4h-704c0-512 242-576 272-576zM928 528c0-79.4-71.8-144-160-144-1 0-2.2 0-3.2 0 30.4 67.2 54.4 157.2 63.4 277.4 58.4-21.4 99.8-73.2 99.8-133.4z" />
<glyph unicode="&#xf159;" glyph-name="ios-calculator-outline" d="M288 640h448v128h-448v-128zM320 736h384v-64h-384v64zM736 832h-448c-35.4 0-64-28.6-64-64v-640c0-35.4 28.6-64 64-64h448c35.4 0 64 28.6 64 64v640c0 35.4-28.6 64-64 64zM768 128c0-17.6-14.4-32-32-32h-448c-17.6 0-32 14.4-32 32v640c0 17.6 14.4 32 32 32h448c17.6 0 32-14.4 32-32v-640zM320 480v96h-32v-128h128v32h-32zM320 320v96h-32v-128h128v32h-32zM320 160v96h-32v-128h128v32h-32zM480 480v96h-32v-128h128v32h-32zM640 480v96h-32v-128h128v32h-32zM480 320v96h-32v-128h128v32h-32zM480 160v96h-32v-128h128v32h-32zM640 160v256h-32v-288h128v32h-32z" />
<glyph unicode="&#xf15a;" glyph-name="ios-calculator" d="M736 832h-448c-35.4 0-64-28.6-64-64v-640c0-35.4 28.6-64 64-64h448c35.4 0 64 28.6 64 64v640c0 35.4-28.6 64-64 64zM720 400v-256h-96v256h96zM720 560v-96h-96v96h96zM560 240v-96h-96v96h96zM560 400v-96h-96v96h96zM560 560v-96h-96v96h96zM400 240v-96h-96v96h96zM400 400v-96h-96v96h96zM400 560v-96h-96v96h96zM304 656v96h416v-96h-416z" />
<glyph unicode="&#xf15b;" glyph-name="ios-calendar-outline" d="M704 768v64h-32v-64h-320v64h-32v-64h-192v-704h768v704h-192zM864 96h-704v480h704v-480zM864 608h-704v128h160v-64h32v64h320v-64h32v64h160v-128z" />
<glyph unicode="&#xf15c;" glyph-name="ios-calendar" d="M128 576h768v-512h-768v512zM896 768h-192v-96h-32v96h-320v-96h-32v96h-192v-160h768zM320 832h32v-64h-32v64zM672 832h32v-64h-32v64z" />
<glyph unicode="&#xf15d;" glyph-name="ios-call-outline" d="M831.8 289c-29.2 30-112.2 86.2-166.6 86.2-12.6 0-23.6-2.8-32.6-8.6-26.6-17-47.8-30.2-58-30.2-5.6 0-11.6 5-24.8 16.4l-2.2 2c-36.6 31.8-44.4 40-58.6 54.8l-3.6 3.8c-2.6 2.6-4.8 5-7 7.2-12.4 12.8-21.4 22-53.2 58l-1.4 1.6c-15.2 17.2-25.2 28.4-25.8 36.6-0.6 8 6.4 21 24.2 45.2 21.6 29.2 22.4 65.2 2.6 107-15.8 33-41.6 64.6-64.4 92.4l-2 2.4c-19.6 24-42.4 36-67.8 36-28.2 0-51.6-15.2-64-23.2-1-0.6-2-1.4-3-2-27.8-17.6-48-41.8-55.6-66.4-11.4-37-19-85 35.6-184.8 47.2-86.4 90-144.4 158-214.2 64-65.6 92.4-86.8 156-132.8 70.8-51.2 138.8-80.6 186.4-80.6 44.2 0 79 0 128.6 59.8 52 62.8 30.4 101.2-0.8 133.4zM808.8 177.2c-40-48.4-63-48.4-104.6-48.4-40.6 0-103.6 28-168.4 74.6-62 44.8-89.6 65.4-151.8 129.2-65.8 67.4-107.2 123.6-152.8 207-48.2 88.2-42.8 126.8-33 158.6 5.2 17 20.8 35.2 42 48.4 1 0.6 2 1.4 3.2 2 10.6 6.8 28.2 18.2 47.4 18.2 16 0 30.2-8 43.8-24.6l2-2.4c51-62.4 90.8-117.6 60.8-158.4-21.2-28.6-32.4-48-30.6-68 1.6-19.4 14.6-34 34.2-56l1.4-1.6c32.2-36.4 41.4-46 54.2-59 2.2-2.2 4.4-4.6 7-7.2l3.6-3.8c14.8-15.4 23-23.8 60.6-56.8l2.2-2c16-14 27.8-24.2 45-24.2 17.8 0 37.4 11.2 74.6 35 3.8 2.4 9.2 3.8 16 3.8 43.4 0 118.2-49.6 144.4-76.6 24-24.4 36-42.8-1.2-87.8z" />
<glyph unicode="&#xf15e;" glyph-name="ios-call" d="M831.8 289c-29.2 30-112.2 86.2-166.6 86.2-12.6 0-23.6-2.8-32.6-8.6-26.6-17-47.8-30.2-58-30.2-5.6 0-11.6 5-24.8 16.4l-2.2 2c-36.6 31.8-44.4 40-58.6 54.8l-3.6 3.8c-2.6 2.6-4.8 5-7 7.2-12.4 12.8-21.4 22-53.2 58l-1.4 1.6c-15.2 17.2-25.2 28.4-25.8 36.6-0.6 8 6.4 21 24.2 45.2 21.6 29.2 22.4 65.2 2.6 107-15.8 33-41.6 64.6-64.4 92.4l-2 2.4c-19.6 24-42.4 36-67.8 36-28.2 0-51.6-15.2-64-23.2-1-0.6-2-1.4-3-2-27.8-17.6-48-41.8-55.6-66.4-11.4-37-19-85 35.6-184.8 47.2-86.4 90-144.4 158-214.2 64-65.6 92.4-86.8 156-132.8 70.8-51.2 138.8-80.6 186.4-80.6 44.2 0 79 0 128.6 59.8 52 62.8 30.4 101.2-0.8 133.4z" />
<glyph unicode="&#xf15f;" glyph-name="ios-camera-outline" d="M835 640h-123.4c-64.2 72-84.4 96-109 96h-177c-24.6 0-44.4-24-109-96h-26.6v32h-68v-32h-27c-35.2 0-67-26.4-67-61.4v-352c0-35 31.8-66.6 67-66.6h640c35.2 0 61 31.6 61 66.6v352c0 35-25.8 61.4-61 61.4zM864 226.6c0-18.6-12.4-34.6-29-34.6h-640c-17.4 0-35 17.4-35 34.6v352c0 16.4 16.2 29.4 35 29.4h135.6l9.6 6.4c8 9 15.4 20 22.2 27.6 22.6 25.4 39 43.4 50.6 53.8 9.4 8.4 12.4 8.2 12.4 8.2h177c0 0 3.2 0.2 13.4-9 12.2-11 29.4-33 53.2-59.6 5.8-6.6 12-13.6 18.6-21l9.6-6.4h137.8c17.6 0 29-12 29-29.4v-352zM512 581c-94.2 0-171-76.8-171-171s76.8-171 171-171 171 76.8 171 171-76.8 171-171 171zM512 271c-76.8 0-139 62.2-139 139s62.2 139 139 139 139-62.2 139-139-62.2-139-139-139zM704 576h34v-34h-34v34zM576 410c0-35.346-28.654-64-64-64s-64 28.654-64 64c0 35.346 28.654 64 64 64s64-28.654 64-64z" />
<glyph unicode="&#xf160;" glyph-name="ios-camera" d="M835 640h-123.4c-64.2 72-84.4 96-109 96h-177c-24.6 0-44.4-24-109-96h-26.6v32h-68v-32h-27c-35.2 0-67-26.4-67-61.4v-352c0-35 31.8-66.6 67-66.6h640c35.2 0 61 31.6 61 66.6v352c0 35-25.8 61.4-61 61.4zM512 239c-94.2 0-171 76.8-171 171s76.8 171 171 171 171-76.8 171-171-76.8-171-171-171zM738 542h-34v34h34v-34zM512 549c-76.8 0-139-62.2-139-139s62.2-139 139-139 139 62.2 139 139-62.2 139-139 139zM512 346c-35.4 0-64 28.6-64 64s28.6 64 64 64 64-28.6 64-64-28.6-64-64-64z" />
<glyph unicode="&#xf161;" glyph-name="ios-car-outline" d="M869.4 553.2l31 4.8c0 0 0 0 0 0 14.2 0 44.8 6 51 12.4s8.4 11.6 8.4 17.2-3.4 15.8-9.6 22.6c-6 6.8-32 10.6-47.4 12.6-4.4 0.6-7.8 0.8-10.4 0.8-6.4 0-8.2-1.4-11-3.2-4.6-3-6-23.4-6.4-34l-16.2-3.6c-9.6 25-22.8 71.2-43 108-23 41.6-47 54.8-57 58-9.8 3-18.8 5.2-86 12.2-67.4 7-126 7-160.8 7s-93.4 0-161.2-7.2c-67.2-6.8-76.2-9-86-12.2-10-3.2-34-16.4-57-58-20.2-36.8-33.4-83-43-108l-16.2 3.6c-0.4 10.6-1.8 31.2-6.4 34-2.8 1.8-4.8 3.4-11 3.4-2.6 0-5.8-0.2-10.2-0.8-15.2-2-41.2-5.6-47.4-12.4-6-6.8-9.4-16.6-9.4-22.2s2.2-11.8 8.4-18.2c6.2-6.4 37-12.4 51-12.4 0 0 0 0 0 0l31-4.8c0 0-53.6-28.4-82.4-60.8 0 0-8.2-49-8.2-115.8 0-96 11.6-176.6 11.6-176.6 53-9.2 92.4-12.4 131.8-13.4 10.8-0.2 21.2-0.4 31.8-0.4 8.6 0 17.4 0 26.6 0.2 48.8 0.6 31.6 14.8 53.4 14.8 0.2 0 0.6 0 0.8 0 22.6-0.4 110-9 192-9s169.4 8.6 192 9c0.2 0 0.6 0 0.8 0 21.6 0 4.4-14.2 53.4-14.6 9 0 17.6-0.2 26-0.2 10.8 0 21.4 0.2 32.6 0.4 39.4 1 79 4.4 131.8 13.6 0 0 11.6 80.6 11.6 176.8 0 67-8.2 115.8-8.2 115.8-29 32.4-82.6 60.6-82.6 60.6zM220.8 651.2c8.6 20.2 28 54.2 44.2 65.6 0 0 94 19.2 247 19.2s247-19.2 247-19.2c16.2-11.2 35.6-45.2 44.2-65.6s22.8-67.6 20.6-73c-1.6-4 0.4-6.6-10.8-6.6-3.6 0-8.8 0.2-16 0.8-28.6 2.2-199 4.6-285 4.6s-256.2-2.4-285-4.6c-7.2-0.6-12.2-0.8-16-0.8-11.4 0-9.2 2.6-10.8 6.6-2.2 5.6 12 52.8 20.6 73zM919.6 227.8c-36.6-5.6-68.6-8.4-103.8-9.2-10.2-0.2-20.2-0.4-31.8-0.4-7.4 0-15.6 0-25.6 0.2-11 0.2-16.2 1-18.2 1.6-7.2 6.6-17 13.2-35.4 13.2-0.4 0-0.8 0-1.4 0-7.8-0.2-21-1-39.4-2-38.4-2.4-96.6-6.8-152-7-55.4 0-113.6 4.6-152.2 7-18.4 1.2-31.6 2-39.4 2-0.4 0-0.8 0-1.4 0-18.4 0-28.2-6.6-35.4-13.2-2-0.4-7.2-1.4-18.2-1.6-10.6-0.2-18.8-0.2-26.2-0.2-11.2 0-21.2 0.2-31 0.4-35.2 1-67.4 3.8-103.8 9.2-3.4 30.2-8.4 86.4-8.4 148.8 0 46.6 4.2 84.6 6.4 101.4 21.4 20.8 55.2 41.2 67.4 47.8l27.6 15c0 0 88.6 4 314.6 4s314.4-4 314.4-4l27.8-15c12.2-6.6 46-26.8 67.4-47.6 2.2-16.8 6.4-54.6 6.4-101.6 0-62.2-5-118.6-8.4-148.8zM277.6 403.4c-19.8 0-59.6 2-69 2.4-9.4 0.2-17.6-7.6-22.4-7.6s-51 7.2-56 29.8c-5 22.4 0 46 0 45.6 31 1.4 61 0.4 117-15.6 56.2-15.8 87.2-46.6 87.2-46.6s-37-8-56.8-8zM684.4 281.4c-25.4-3.4-117-4.4-172.4-4.4s-147 1-172.4 4.4c-26.2 3.4-59.6 34.6-36.8 60.4 15.2 17 41.6 27.2 97.8 34.6 59.6 7.6 97.2 8.6 111.2 8.6s51.6-1 111.2-8.6c56.2-7.4 86.4-19.2 97.8-34.6 20.8-27.6-10.2-56.8-36.4-60.4zM893.8 427.8c-5-22.4-51.2-29.8-56-29.8s-13 7.8-22.4 7.6c-9.4-0.4-49.2-2.4-69-2.4s-56.8 8-56.8 8 31 30.8 87.2 46.6c56 16 86 17 117 15.6 0 0.4 5-23 0-45.6zM802 135.4c0-4.2 2.6-7.4 6.4-7.4 0 0 106 0 113 0 9.8 0 11.8 7 12.4 11 2.8 16.8 3.8 42.6 3.8 42.6-51.4-9.4-97.6-11-135.6-12v-34.2zM90.4 139c0.6-4 2.6-11 12.4-11 7 0 113.4 0 113.4 0 3.8 0 6 3.2 6 7.4v34.2c-38 1-84.4 2.6-135.8 12-0.2-0.2 1.2-25.8 4-42.6z" />
<glyph unicode="&#xf162;" glyph-name="ios-car" d="M951.8 492c-28.8 32.6-82.4 61.6-82.4 61.6l31 6.2c0 0 0 0 0 0 14.2 0 44.8 4.6 51 10.8 6.2 6.4 8.4 10.8 8.4 16.4s-3.4 15.4-9.6 22.2c-6 6.8-32 10.4-47.4 12.4-15.2 2-17.4 0-21.4-2.4-4.6-3-6-23.4-6.4-34l-16.2-3.6c-9.6 25-22.8 71.2-43 108-23 41.6-47 54.8-57 58-9.8 3-18.8 5.2-86 12.2-67.4 7.2-126 8.2-160.8 8.2s-93.4-1-161.2-8.2c-67.2-6.8-76.2-9-86-12.2-10-3.2-34-16.4-57-58-20.2-36.8-33.4-83-43-108l-16.2 3.6c-0.4 10.6-1.8 31.2-6.4 34-4 2.6-6 4.4-21.4 2.4-15.2-2-41.2-5.6-47.4-12.4-6-6.8-9.4-16.6-9.4-22.2s2.2-10.2 8.4-16.6c6.2-6.4 37-10.8 51-10.8 0 0 0 0 0 0l31-6.2c0 0-53.6-29.2-82.4-61.6 0 0-8.2-49.4-8.2-116.2 0-96 11.6-176.8 11.6-176.8 53-9.2 92.4-12.6 131.8-13.6 19.8-0.4 37.8-0.4 58.4-0.2 49.6 0.6 31.2 15 54.2 14.6 22.6-0.4 110-8 192-8s169.4 7.6 192 8c23 0.4 4.6-14.2 54.2-14.6 20.6-0.2 38.8-0.2 58.4 0.2 39.4 1 79 4.4 131.8 13.6 0 0 11.6 80.6 11.6 176.8 0.2 67.2-8 116.4-8 116.4zM220.8 650.2c8.6 20.2 28 54.2 44.2 65.6 0 0 94 20.2 247 20.2s247-20.2 247-20.2c16.2-11.2 35.6-45.2 44.2-65.6 8.6-20.2 22.8-67.6 20.6-73s2.2-8.2-26.8-5.8c-28.8 2.2-199 4.6-285 4.6s-256.2-2.4-285-4.6c-29-2.4-24.8 0.4-26.8 5.8-2.2 5.6 12 52.8 20.6 73zM247.6 418.4c-19.8 0-59.6 2-69 2.4-9.4 0.2-17.6-7.6-22.4-7.6s-51 7.2-56 29.8c-5 22.4 0 46 0 45.6 31 1.4 61 0.4 117-15.6 56.2-15.8 87.2-46.6 87.2-46.6s-37-8-56.8-8zM684.4 280.4c-25.4-3.4-117-4.4-172.4-4.4s-147 1-172.4 4.4c-26.2 3.4-59.6 34.6-36.8 60.4 15.2 17 41.6 27.2 97.8 34.6 59.6 7.6 97.2 8.6 111.2 8.6s51.6-1 111.2-8.6c56.2-7.4 86.4-19.2 97.8-34.6 20.8-27.6-10.2-56.8-36.4-60.4zM923.8 442.8c-5-22.4-51.2-29.8-56-29.8s-13 7.8-22.4 7.6c-9.4-0.4-49.2-2.4-69-2.4s-56.8 8-56.8 8 31 30.8 87.2 46.6c56 16 86 17 117 15.6 0 0.4 5-23 0-45.6zM802 135.4c0-4.2 2.4-7.4 6.2-7.4 0 0 106 0 113 0 9.8 0 11.8 7 12.4 11 2.8 16.8 4 42.6 4 42.6-51.4-9.4-97.6-11-135.6-12v-34.2zM90.2 139c0.6-4 2.6-11 12.4-11 7 0 113.4 0 113.4 0 3.8 0 6.2 3.2 6.2 7.4v34.2c-38 1-84.4 2.6-135.8 12-0.2-0.2 1-25.8 3.8-42.6z" />
<glyph unicode="&#xf163;" glyph-name="ios-card-outline" d="M864 736h-704c-35.2 0-64-28.8-64-64v-448c0-35.2 28.8-64 64-64h704c35.2 0 64 28.8 64 64v448c0 35.2-28.8 64-64 64zM160 704h704c17.6 0 32-14.4 32-32v-64h-768v64c0 17.6 14.4 32 32 32zM896 576v-96h-768v96h768zM864 192h-704c-17.6 0-32 14.4-32 32v224h768v-224c0-17.6-14.4-32-32-32zM192 320h64v-32h-64v32zM320 320h384v-32h-384v32z" />
<glyph unicode="&#xf164;" glyph-name="ios-card" d="M864 736h-704c-35.2 0-64-28.8-64-64v-448c0-35.2 28.8-64 64-64h704c35.2 0 64 28.8 64 64v448c0 35.2-28.8 64-64 64zM160 704h704c17.6 0 32-14.4 32-32v-64h-768v64c0 17.6 14.4 32 32 32zM864 192h-704c-17.6 0-32 14.4-32 32v224h768v-224c0-17.6-14.4-32-32-32zM192 320h64v-32h-64v32zM320 320h384v-32h-384v32z" />
<glyph unicode="&#xf165;" glyph-name="ios-cart-outline" d="M320 160c-26.496 0-48-21.504-48-48s21.504-48 48-48 48 21.504 48 48-21.504 48-48 48zM320 96c-8.822 0-16 7.178-16 16s7.178 16 16 16 16-7.178 16-16-7.178-16-16-16zM769 160c-26.496 0-48-21.504-48-48s21.504-48 48-48 48 21.504 48 48-21.504 48-48 48zM769 96c-8.822 0-16 7.178-16 16s7.178 16 16 16 16-7.178 16-16-7.178-16-16-16zM896 704l-649.646 64.708c-3.256 13.944-8.738 29.32-23.676 41.334-18.628 14.98-48.714 21.958-94.678 21.958v-32.002c37.228 0 62.334-5.012 74.624-14.894 8.916-7.17 11.288-16.846 14.33-31.978l-0.048-0.008 84.104-467.276c4.826-28.844 14.388-50.418 26.582-65.972 14.494-18.494 33.474-27.87 56.408-27.87h480v32h-480c-9.454 0-38.272-0.246-51.498 67.51l-10.858 60.32 542.356 96.17 32 256zM837.18 475.304l-521.202-91.98-63.464 352.6 607.738-61.216-23.072-199.404z" />
<glyph unicode="&#xf166;" glyph-name="ios-cart" d="M320 160c-26.496 0-48-21.504-48-48s21.504-48 48-48 48 21.504 48 48-21.504 48-48 48zM769 160c-26.496 0-48-21.504-48-48s21.504-48 48-48 48 21.504 48 48-21.504 48-48 48zM896 704l-649.646 64.708c-3.256 13.944-8.738 29.32-23.676 41.334-18.628 14.98-48.714 21.958-94.678 21.958v-32.002c37.228 0 62.334-5.012 74.624-14.894 8.916-7.17 11.288-16.846 14.33-31.978l-0.048-0.008 84.104-467.276c4.826-28.844 14.388-50.418 26.582-65.972 14.494-18.494 33.474-27.87 56.408-27.87h480v32h-480c-9.454 0-38.272-0.246-51.498 67.51l-10.858 60.32 542.356 96.17 32 256z" />
<glyph unicode="&#xf167;" glyph-name="ios-cash-outline" d="M80 224h864v-32h-864v32zM96 160h832v-32h-832v32zM64 768v-512h896v512h-896zM928 288h-832v448h832v-448zM768 704h128v-32h-128v32zM768 352h128v-32h-128v32zM128 704h128v-32h-128v32zM128 352h128v-32h-128v32zM512 368c-79.4 0-144 64.6-144 144s64.6 144 144 144 144-64.6 144-144-64.6-144-144-144zM512 624c-61.8 0-112-50.2-112-112s50.2-112 112-112 112 50.2 112 112-50.2 112-112 112z" />
<glyph unicode="&#xf168;" glyph-name="ios-cash" d="M80 224h864v-32h-864v32zM96 160h832v-32h-832v32zM512 624c-61.8 0-112-50.2-112-112s50.2-112 112-112 112 50.2 112 112-50.2 112-112 112zM64 768v-512h896v512h-896zM256 320h-128v32h128v-32zM256 672h-128v32h128v-32zM512 368c-79.4 0-144 64.6-144 144s64.6 144 144 144 144-64.6 144-144-64.6-144-144-144zM896 320h-128v32h128v-32zM896 672h-128v32h128v-32z" />
<glyph unicode="&#xf169;" glyph-name="ios-chatboxes-outline" d="M128 832h512v-192h32v224h-576v-448h224v32h-192zM352 608v-448h325.2l128-128h26.8v128h96v448h-576zM896 192h-96v-109.2l-110 109.2h-306v384h512v-384z" />
<glyph unicode="&#xf16a;" glyph-name="ios-chatboxes" d="M672 864h-576v-448h224v224h352zM352 608v-448h325.2l128-128h26.8v128h96v448h-576z" />
<glyph unicode="&#xf16b;" glyph-name="ios-chatbubbles-outline" d="M862 318.8c0 8.8 2.4 17.2 6.6 24.4 1.2 2.2 2.8 4.2 4.2 6.2 34.8 52 55.2 114.2 55.2 180.6 0.6 184.4-155 334-347.4 334-167.8 0-307.8-114.2-340.6-265.8-4.8-22.2-7.4-44.8-7.4-68.4 0-184.6 149.6-338.2 342-338.2 30.6 0 71.8 9.2 94.4 15.4s45 14.4 50.8 16.6 12.2 3.4 18.6 3.4c7.2 0 14-1.4 20.2-4l113.4-40.2c0 0 4.8-2 7.8-2 8.8 0 16 7 16 16 0 2-1 5.4-1 5.4l-32.8 116.6zM770.2 252.8c-10 4-20.6 6.4-31.6 6.4-8.2 0-20.2-1.6-24.4-3.2s-22.6-7.6-22.6-7.6c-8.4-2.8-19.8-7.6-30.4-10.2-28-7.2-60.2-14.4-86.4-14.4-83.8 0-162.2 32.2-220.6 90.6-28.2 28.2-50.2 61-65.6 97.4-15.8 37.6-23.8 77.4-23.8 118.2 0 20.4 2.2 41.2 6.6 61.6 14.4 66.8 53 127.6 108.4 171.4 27.6 21.8 58.8 39 92.2 50.8 34.8 12.2 71.4 18.4 108.8 18.4 44 0 86.6-8.4 126.6-25.2 38.6-16.2 72.8-39.2 102-68.4 56-56.6 86.6-130.6 86.6-208.6v0 0c0-57.8-17.2-114-49.4-162.4-0.2-0.2-0.4-0.6-0.6-0.8-1.4-1.8-3.2-4.4-5-7.6-7-12.2-10.8-24.8-10.8-40.2s16.4-65 26-96.4l-86 30.2zM610.6 168.6c-12.6-12.2-24.2-20.8-24.2-20.8-49.8-40.4-112.8-62.8-179-62.8-37.6 0-74.2 7.2-109 21.4-0.8 0.4-1.6 0.6-2 0.8v0c-1.2 0.6-2.4 1-3.6 1.2-14 4.6-29.4 4-42.8-1.4l-85-33.6 18.6 97c0.2 1 0.2 2 0.2 3 0 10.2-2.6 20-7.8 28.6l-0.8 1.4c-1 1.6-2 3.6-3.4 5.4-28.8 43.4-44 93.8-44 145.8 0 60 21.2 125.6 75.6 185.8 1.2 8.6 2.6 17.2 4.6 25.6 2 9 4.4 18 7 26.8l-16-14.2c-65.4-57-103-138.6-103-223.6 0-58.6 17.2-115.2 49.6-164 0.2-0.2 0.4-0.4 0.6-0.8 0.4-0.4 1.2-1.8 1.6-2.8 0.4-0.6 0.6-1.2 1-1.6 2-3.4 3-6.8 3.2-10.8l-23.8-124c-1.2-5.8 1-11.6 5.4-15.4 3-2.4 6.6-3.6 10.2-3.6 2 0 4 0.4 5.8 1.2l112.2 44.2c3.6 1.4 7.4 2.2 11.4 2.2 3.6 0 7.2-0.6 10.6-1.8 0.4-0.2 1-0.4 1.4-0.4v0c0.2-0.2 0.4-0.2 0.6-0.2 38.6-16 79.6-24 121.4-24 93.2 0 180.8 40.2 240.2 110.2 0 0 6.4 8.8 13.8 19.2-7.6-2.4-16-5-24.4-7.4-7.2-2.2-16.2-4.4-26.2-6.6z" />
<glyph unicode="&#xf16c;" glyph-name="ios-chatbubbles" d="M862 318.8c0 8.8 2.4 17.2 6.6 24.4 1.2 2.2 2.8 4.2 4.2 6.2 34.8 52 55.2 114.2 55.2 180.6 0.6 184.4-155 334-347.4 334-167.8 0-307.8-114.2-340.6-265.8-4.8-22.2-7.4-44.8-7.4-68.4 0-184.6 149.6-338.2 342-338.2 30.6 0 71.8 9.2 94.4 15.4s45 14.4 50.8 16.6 12.2 3.4 18.6 3.4c7.2 0 14-1.4 20.2-4l113.4-40.2c0 0 4.8-2 7.8-2 8.8 0 16 7 16 16 0 2-1 5.4-1 5.4l-32.8 116.6zM622.4 153.2c-0.6-1-0.2-1.4 1.4-0.8-0.2 0.6-0.6 0.8-1.4 0.8zM637 175c-7.2-2-16.4-4.2-26.4-6.4-21-4.4-47.8-9-68-9-192.4 0-342 153.6-342 338.2 0 13.2 1.4 30 3 42.8 1.2 8.6 2.6 17.2 4.6 25.6 2 9 4.4 18 7 26.8l-16-14.2c-65.6-57.2-103.2-138.8-103.2-223.8 0-58.6 17-115 49.6-164 4.6-7 7.2-12.4 6.4-16s-23.8-124-23.8-124c-1.2-5.8 1-11.6 5.4-15.4 3-2.4 6.6-3.6 10.2-3.6 2 0 4 0.4 5.8 1.2l112.2 44.2c3.6 1.4 7.4 2.2 11.4 2.2 0 0 4.8 0.4 12.6-2.6 37.8-14.8 79.6-24 121.4-24 93.2 0 180.8 40.2 240.2 110.2 0 0 6.4 8.8 13.8 19.2-7.4-2.6-15.8-5.2-24.2-7.4z" />
<glyph unicode="&#xf16d;" glyph-name="ios-checkbox-outline" d="M432 246c0.8 0 0.8 0.2 0 0.4-0.8-0.2-1-0.4 0-0.4zM680.2 605.4l-249.6-251.4-94.4 94.4-35.8-35.6 130.2-130 284.6 286.4zM864 800v-704h-704v704h704zM896 832h-768v-768h768v768z" />
<glyph unicode="&#xf16e;" glyph-name="ios-checkbox" d="M128 832v-768h768v768h-768zM432 246c-1 0-0.8 0.2 0 0.4 0.8-0.2 0.8-0.4 0-0.4zM430.6 282.8l-130 130 35.6 35.6 94.4-94.4 249.6 251.4 35-36.2-284.6-286.4zM432 246c0.8 0 0.8 0.2 0 0.4-0.8-0.2-1-0.4 0-0.4z" />
<glyph unicode="&#xf16f;" glyph-name="ios-checkmark-circle-outline" d="M680.2 605.4l-249.6-251.4-94.4 94.4-35.6-35.6 112-112c5-5 11.8-9 17.8-9s12.6 4 17.6 8.8l267.4 268.8-35.2 36zM512 864c-229.8 0-416-186.2-416-416s186.2-416 416-416c229.8 0 416 186.2 416 416s-186.2 416-416 416zM512 66.6c-210.2 0-381.4 171-381.4 381.4 0 210.2 171 381.4 381.4 381.4 210.2 0 381.4-171 381.4-381.4 0-210.2-171.2-381.4-381.4-381.4z" />
<glyph unicode="&#xf170;" glyph-name="ios-checkmark-circle" d="M512 864c-229.8 0-416-186.2-416-416s186.2-416 416-416c229.8 0 416 186.2 416 416s-186.2 416-416 416zM447.8 300.6c-4.8-4.8-11.6-8.8-17.6-8.8s-12.8 4.2-17.8 9l-112 112 35.6 35.6 94.4-94.4 249.6 251.4 35-36.2-267.2-268.6z" />
<glyph unicode="&#xf171;" glyph-name="ios-checkmark" d="M447.8 300.6c-4.8-4.8-11.6-8.8-17.6-8.8s-12.8 4.2-17.8 9l-112 112 35.6 35.6 94.4-94.4 249.6 251.4 35-36.2-267.2-268.6z" />
<glyph unicode="&#xf172;" glyph-name="ios-clipboard-outline" d="M544 768.6c0-17.673-14.327-32-32-32s-32 14.327-32 32c0 17.673 14.327 32 32 32s32-14.327 32-32zM800 832h-184.2c8.2-9.2 14.6-20 18.8-32h149.4c8.8 0 16-7.2 16-16v-704c0-8.8-7.2-16-16-16h-544c-8.8 0-16 7.2-16 16v704c0 8.8 7.2 16 16 16h149.4c4.2 12 10.6 22.8 18.8 32h-184.2c-17.6 0-32-14.4-32-32v-736c0-17.6 14.4-32 32-32h576c17.6 0 32 14.4 32 32v736c0 17.6-14.4 32-32 32zM352 738v-34h-96v-608h512v608h-96v34c0 17.6-12.8 30-30.4 30h-33.6c0 11.2-2 22-5.4 32-4.2 12-10.6 22.8-18.8 32-17.6 19.8-43.2 32-71.8 32s-54.2-12.2-71.8-32c-8.2-9.2-14.6-20-18.8-32-3.4-10-5.4-20.8-5.4-32h-29c-17.6 0-35-12.4-35-30zM672 640v32h64v-544h-448v544h64v-32h320zM448 736v33c0 35.8 28.2 64 64 64s64-28.2 64-64v-33h64v-64h-256v64h64z" />
<glyph unicode="&#xf173;" glyph-name="ios-clipboard" d="M288 128h448v544h-32v-64h-384v64h-32zM641.6 768h-33.6c0 11.2-2 22-5.4 32-4.2 12-10.6 22.8-18.8 32-17.6 19.8-43.2 32-71.8 32s-54.2-12.2-71.8-32c-8.2-9.2-14.6-20-18.8-32-3.4-10-5.4-20.8-5.4-32h-29c-17.6 0-35-12.4-35-30v-98h320v98c0 17.6-12.8 30-30.4 30zM512 736.6c-17.6 0-32 14.4-32 32s14.4 32 32 32 32-14.4 32-32c0-17.6-14.4-32-32-32zM704 738c0-0.6 0-1.4 0-2v2zM800 832h-184.2c8.2-9.2 14.6-20 18.8-32l0.2-0.2c1.6 0.2 3.4 0.2 5.2 0.2 34.6 0 62.8-27.6 64-62v0-34h64v-608h-512v608h64v22c0 35.4 23.4 68 64 68 0.8 0 1.8 0 2.6 0 1 0 1.8 0 2.8 0 3.4 18 10.6 28.8 18.8 38h-184.2c-17.6 0-32-14.4-32-32v-736c0-17.6 14.4-32 32-32h576c17.6 0 32 14.4 32 32v736c0 17.6-14.4 32-32 32z" />
<glyph unicode="&#xf174;" glyph-name="ios-clock-outline" d="M528 784c0-8.837-7.163-16-16-16s-16 7.163-16 16c0 8.837 7.163 16 16 16s16-7.163 16-16zM528 112c0-8.837-7.163-16-16-16s-16 7.163-16 16c0 8.837 7.163 16 16 16s16-7.163 16-16zM864 448c0-8.837-7.163-16-16-16s-16 7.163-16 16c0 8.837 7.163 16 16 16s16-7.163 16-16zM192 448c0-8.837-7.163-16-16-16s-16 7.163-16 16c0 8.837 7.163 16 16 16s16-7.163 16-16zM237 616c0-8.837-7.163-16-16-16s-16 7.163-16 16c0 8.837 7.163 16 16 16s16-7.163 16-16zM819 280c0-8.837-7.163-16-16-16s-16 7.163-16 16c0 8.837 7.163 16 16 16s16-7.163 16-16zM696 739c0-8.837-7.163-16-16-16s-16 7.163-16 16c0 8.837 7.163 16 16 16s16-7.163 16-16zM360 157c0-8.837-7.163-16-16-16s-16 7.163-16 16c0 8.837 7.163 16 16 16s16-7.163 16-16zM237 280c0-8.837-7.163-16-16-16s-16 7.163-16 16c0 8.837 7.163 16 16 16s16-7.163 16-16zM819 616c0-8.837-7.163-16-16-16s-16 7.163-16 16c0 8.837 7.163 16 16 16s16-7.163 16-16zM360 739c0-8.837-7.163-16-16-16s-16 7.163-16 16c0 8.837 7.163 16 16 16s16-7.163 16-16zM696 157c0-8.837-7.163-16-16-16s-16 7.163-16 16c0 8.837 7.163 16 16 16s16-7.163 16-16zM539.8 464c-5.8 10-16.2 15.6-26.8 16l-60 110.8c-4.6 7.6-14.4 10-22 5.4s-10-14.4-5.4-22l59.2-109.8c-5.8-9.6-6.4-22.2-0.4-32.6 3-5 7-9 11.8-11.6v-228.2c0-8.8 7.2-16 16-16s16 7.2 16 16v228.2c15.2 9 20.4 28.4 11.6 43.8zM806.2 742.2c-162.4 162.4-425.8 162.4-588.4 0s-162.4-425.8 0-588.4c162.4-162.4 425.8-162.4 588.4 0 162.4 162.4 162.4 426 0 588.4zM781.6 178.4c-148.6-148.6-390.6-148.6-539.2 0s-148.6 390.6 0 539.2 390.6 148.6 539.2 0c148.8-148.6 148.8-390.6 0-539.2z" />
<glyph unicode="&#xf175;" glyph-name="ios-clock" d="M806.2 742.2c-162.4 162.4-425.8 162.4-588.4 0s-162.4-425.8 0-588.4c162.4-162.4 425.8-162.4 588.4 0 162.4 162.4 162.4 426 0 588.4zM512 800c8.8 0 16-7.2 16-16s-7.2-16-16-16-16 7.2-16 16c0 8.8 7.2 16 16 16zM207.2 624c4.4 7.6 14.2 10.2 21.8 5.8s10.2-14.2 5.8-21.8c-4.4-7.6-14.2-10.2-21.8-5.8s-10.2 14.2-5.8 21.8zM176 432c-8.8 0-16 7.2-16 16s7.2 16 16 16 16-7.2 16-16c0-8.8-7.2-16-16-16zM229 266.2c-7.6-4.4-17.4-1.8-21.8 5.8s-1.8 17.4 5.8 21.8 17.4 1.8 21.8-5.8c4.4-7.6 1.8-17.4-5.8-21.8zM357.8 149c-4.4-7.6-14.2-10.2-21.8-5.8s-10.2 14.2-5.8 21.8c4.4 7.6 14.2 10.2 21.8 5.8s10.2-14.2 5.8-21.8zM352 725.2c-7.6-4.4-17.4-1.8-21.8 5.8s-1.8 17.4 5.8 21.8c7.6 4.4 17.4 1.8 21.8-5.8s1.8-17.4-5.8-21.8zM512 96c-8.8 0-16 7.2-16 16s7.2 16 16 16 16-7.2 16-16c0-8.8-7.2-16-16-16zM528 420.2v-228.2c0-8.8-7.2-16-16-16s-16 7.2-16 16v228.4c-4.8 2.8-8.8 6.6-11.8 11.6-6 10.4-5.4 23 0.4 32.6l-59.2 109.8c-4.6 7.6-2 17.4 5.4 22 7.6 4.6 17.4 2 22-5.4l60-110.8c10.8-0.2 21.2-6 26.8-16 9-15.6 3.8-35-11.6-44zM688 143.2c-7.6-4.4-17.4-1.8-21.8 5.8s-1.8 17.4 5.8 21.8c7.6 4.4 17.4 1.8 21.8-5.8s1.8-17.4-5.8-21.8zM693.8 731c-4.4-7.6-14.2-10.2-21.8-5.8s-10.2 14.2-5.8 21.8c4.4 7.6 14.2 10.2 21.8 5.8s10.2-14.2 5.8-21.8zM816.8 272c-4.4-7.6-14.2-10.2-21.8-5.8s-10.2 14.2-5.8 21.8c4.4 7.6 14.2 10.2 21.8 5.8s10.2-14.2 5.8-21.8zM811 602.2c-7.6-4.4-17.4-1.8-21.8 5.8s-1.8 17.4 5.8 21.8 17.4 1.8 21.8-5.8c4.4-7.6 1.8-17.4-5.8-21.8zM848 432c-8.8 0-16 7.2-16 16s7.2 16 16 16 16-7.2 16-16c0-8.8-7.2-16-16-16z" />
<glyph unicode="&#xf176;" glyph-name="ios-close-circle-outline" d="M806.2 742.2c-162.4 162.4-425.8 162.4-588.4 0s-162.4-425.8 0-588.4c162.4-162.4 425.8-162.4 588.4 0s162.4 426 0 588.4zM781.6 178.4c-148.6-148.6-390.6-148.6-539.2 0s-148.6 390.6 0 539.2 390.6 148.6 539.2 0c148.8-148.6 148.8-390.6 0-539.2zM680.4 640l-168.8-168.4-168 167.6-23.6-23.6 168-167.6-168-167.6 23.6-23.6 168 167.6 168.8-168.4 23.6 23.6-168.8 168.4 168.8 168.4z" />
<glyph unicode="&#xf177;" glyph-name="ios-close-circle" d="M806.2 742.2c-162.4 162.4-425.8 162.4-588.4 0s-162.4-425.8 0-588.4c162.4-162.4 425.8-162.4 588.4 0s162.4 426 0 588.4zM704 279.6l-23.6-23.6-168.8 168.4-168-167.6-23.6 23.6 168 167.6-168 167.6 23.6 23.6 168-167.6 168.8 168.4 23.6-23.6-168.8-168.4 168.8-168.4z" />
<glyph unicode="&#xf178;" glyph-name="ios-close" d="M680.4 640l-168.8-168.6-168 167.8-23.6-23.6 168-167.6-168-167.8 23.6-23.4 168 167.6 168.8-168.4 23.6 23.4-168.8 168.6 168.8 168.4z" />
<glyph unicode="&#xf179;" glyph-name="ios-closed-captioning-outline" d="M960 128h-896v640h896v-640zM96 160h832v576h-832v-576zM540 180c-9.4 0-18.8 0-28 0s-18.4 0-27.8 0c-71.4 0-162 0.8-227.6 6.8-72.2 6.6-113 48.2-118 120l-1 15.4c-3.4 50-5.6 83-5.6 126.2 0 48 0.2 78.2 6.8 142 7.2 70.8 48 112 117.8 119.2 64 6.4 174.6 6.4 255.6 6.4 80.8 0 191.6 0 255.6-6.4 69.8-7 110.4-48.2 117.8-119.2 6.6-63.8 6.8-94 6.8-142 0-43-2.2-76-5.6-126l-1-15.6c-4.8-71.8-45.6-113.4-118-120-66-6-156.4-6.8-227.8-6.8zM512 212v0c9.2 0 18.6 0 28 0 70.8 0 160.2 0.8 224.6 6.6 56 5.2 85.2 34.8 89 90.4l1 15.6c3.4 49.2 5.6 81.8 5.6 123.8 0 47-0.2 76.6-6.6 138.8-5.8 56.2-34 85-89.2 90.6-62.4 6.2-172.2 6.2-252.4 6.2s-190 0-252.2-6.4c-55-5.6-83.4-34.4-89.2-90.6-6.4-62.2-6.6-91.8-6.6-138.8 0-42 2.2-74.6 5.6-124l1-15.4c3.8-55.6 32.8-85.2 89-90.4 64.4-6 153.8-6.6 224.6-6.6 9.4 0.2 18.8 0.2 27.8 0.2zM675.4 603.2c34.4 0 58.8-8.6 74.8-26.4 11.2-12.4 18.8-31.6 22.6-54.8h-28.2c-10.8 35.4-39.8 59.6-75.8 59.6-22.4 0-41.6-8-55.8-23.2-12.8-13.6-20.8-32.4-24.2-56v0 0c-0.2-1-3-22.6-3-56.4 0-29.8 2-46.8 2.6-51.4 4.4-47.2 37-80.2 79.6-80.2 22.2 0 42.4 8.4 57 23.6 9.6 10 16 22.2 19.6 36.2h28.8c-3.4-23.4-10.8-41.6-22.4-54.6-15.4-17.6-43.4-26.4-83.4-26.4-20.2 0-37.8 2.2-52.2 6.8-11.4 3.6-20.8 10-28.4 19.4-8.6 10.6-15.4 26-20.2 45.4-5.2 21.6-8 49.2-8 82.4 0 33.4 3.2 61.2 9.6 82.2 5.8 19.4 13.8 34.6 23.6 45.4 9.4 10.4 20.2 17.2 33.2 21.4 14.8 4.6 31.8 7 50.2 7zM675.4 635.2c-21.8 0-41.8-2.8-60-8.6s-34-15.8-47.2-30.2c-13.2-14.4-23.4-33.6-30.8-57.8-7.2-24.2-11-54.6-11-91.4 0-36 3-66 8.8-90.2 6-24.2 14.6-43.4 26.2-57.8s26.2-24.4 43.6-30c17.6-5.6 38.2-8.4 61.8-8.4 50 0 86 12.8 107.6 37.4s32.4 60.6 32.4 107.8h-92.2c0 0 0-5 0-6.8v-1.4c0-32.6-20.2-51.8-47.2-51.8s-45.2 21.6-47.8 51.8c0 0-2.4 15.8-2.4 47.8s2.8 52 2.8 52c4.8 34 21.4 51.8 48.4 51.8 26.8 0 48.2-23.2 48.2-58.4 0-0.2 0-1 0-1h90.2c0 43.8-11 83.2-33.2 108-21.6 24.8-54.4 37.2-98.2 37.2v0zM365.6 603.2c34.4 0 58.8-8.6 74.8-26.4 11.2-12.4 18.8-31.6 22.6-54.8h-28.2c-10.8 35.4-39.8 59.6-75.8 59.6-22.4 0-41.6-8-55.8-23.2-12.8-13.6-20.8-32.4-24.2-56v0 0c-0.2-1-3-22.6-3-56.4 0-29.8 2-46.8 2.6-51.4 4.4-47.2 37-80.2 79.6-80.2 22.2 0 42.4 8.4 57 23.6 9.6 10 16 22.2 19.6 36.2h28.8c-3.4-23.4-10.8-41.6-22.4-54.6-15.4-17.6-43.4-26.4-83.4-26.4-20.2 0-37.8 2.2-52.2 6.8-11.4 3.6-20.8 10-28.4 19.4-8.6 10.6-15.4 26-20.2 45.4-5.2 21.6-8 49.2-8 82.4 0 33.4 3.2 61.2 9.6 82.2 5.8 19.4 13.8 34.6 23.6 45.4 9.4 10.4 20.2 17.2 33.2 21.4 14.8 4.6 31.8 7 50.2 7zM365.6 635.2c-21.8 0-41.8-2.8-60-8.6s-34-15.8-47.2-30.2c-13.2-14.4-23.4-33.6-30.8-57.8-7.2-24.2-11-54.6-11-91.4 0-36 3-66 8.8-90.2 6-24.2 14.6-43.4 26.2-57.8s26.2-24.4 43.6-30c17.6-5.6 38.2-8.4 61.8-8.4 50 0 86 12.8 107.6 37.4s32.4 60.6 32.4 107.8h-92.2c0 0 0-5 0-6.8v-1.4c0-32.6-20.2-51.8-47.2-51.8s-45.2 21.6-47.8 51.8c0 0-2.4 15.8-2.4 47.8s2.8 52 2.8 52c4.8 34 21.4 51.8 48.4 51.8 26.8 0 48.2-23.2 48.2-58.4 0-0.2 0-1 0-1h90.2c0 43.8-11 83.2-33.2 108-21.6 24.8-54.4 37.2-98.2 37.2v0z" />
<glyph unicode="&#xf17a;" glyph-name="ios-closed-captioning" d="M64 768v-640h896v640h-896zM860 448.4c0-41.8-2.2-74.4-5.6-123.8l-1-15.6c-3.8-55.6-32.8-85.2-89-90.4-64.4-6-153.8-6.6-224.6-6.6-9.4 0-18.6 0-27.8 0v0c-9.2 0-18.4 0-27.8 0-70.8 0-160.4 0.8-224.6 6.6-56 5.2-85.2 34.8-89 90.4l-1 15.4c-3.4 49.4-5.6 82-5.6 124 0 47 0.2 76.6 6.6 138.8 5.8 56.2 34 85 89.2 90.6 62.4 6.4 172.2 6.4 252.2 6.4 80.2 0 190 0 252.4-6.4 55-5.6 83.4-34.4 89.2-90.6 6.2-62.2 6.6-91.8 6.4-138.8zM675.4 635.2c-21.8 0-41.8-2.8-60-8.6s-34-15.8-47.2-30.2c-13.2-14.4-23.4-33.6-30.8-57.8-7.2-24.2-11-54.6-11-91.4 0-36 3-66 8.8-90.2 6-24.2 14.6-43.4 26.2-57.8s26.2-24.4 43.6-30c17.6-5.6 38.2-8.4 61.8-8.4 50 0 86 12.8 107.6 37.4s32.4 60.6 32.4 107.8h-92.2c0 0 0-5 0-6.8v-1.4c0-32.6-20.2-51.8-47.2-51.8s-45.2 21.6-47.8 51.8c0 0-2.4 15.8-2.4 47.8s2.8 52 2.8 52c4.8 34 21.4 51.8 48.4 51.8 26.8 0 48.2-23.2 48.2-58.4 0-0.2 0-1 0-1h90.2c0 43.8-11 83.2-33.2 108-21.6 24.8-54.4 37.2-98.2 37.2v0zM365.6 635.2c-21.8 0-41.8-2.8-60-8.6s-34-15.8-47.2-30.2c-13.2-14.4-23.4-33.6-30.8-57.8-7.2-24.2-11-54.6-11-91.4 0-36 3-66 8.8-90.2 6-24.2 14.6-43.4 26.2-57.8s26.2-24.4 43.6-30c17.6-5.6 38.2-8.4 61.8-8.4 50 0 86 12.8 107.6 37.4s32.4 60.6 32.4 107.8h-92.2c0 0 0-5 0-6.8v-1.4c0-32.6-20.2-51.8-47.2-51.8s-45.2 21.6-47.8 51.8c0 0-2.4 15.8-2.4 47.8s2.8 52 2.8 52c4.8 34 21.4 51.8 48.4 51.8 26.8 0 48.2-23.2 48.2-58.4 0-0.2 0-1 0-1h90.2c0 43.8-11 83.2-33.2 108-21.6 24.8-54.4 37.2-98.2 37.2v0z" />
<glyph unicode="&#xf17b;" glyph-name="ios-cloud-circle-outline" d="M548.6 608c28 0 54.4-10.6 74.8-29.8 20.4-19.4 33.2-46.2 36.4-75.4l2.6-24.2 24.2-4c28.8-4.6 49.6-30 49.6-60.4 0-16.8-6.4-32.4-17.8-44.4-11.2-11.6-25.8-18-41.2-18h-330.4c-15.4 0-30 6.4-41.2 18-11.4 12-17.8 27.8-17.8 44.4 0 28.6 17.8 53.6 44.2 62.2l21.8 7 0.4 22.8c0.4 22.4 18 40.8 39.4 40.8 5.6 0 16.8-2.2 24.2-5.6s17.6-8 17.6-8l15.2 21.8c20.8 32.6 58.4 52.8 98 52.8zM548.6 640c-51.2 0-98.8-26.8-125-67.6-9 4.2-19.2 6.8-29.8 6.8-39 0-70.8-32.2-71.4-72.2-40-13-66.4-50.4-66.4-92.4 0-51.4 40.6-94.4 90.8-94.4h330.2c50.2 0 90.8 42.8 90.8 94.4 0 46.4-33.2 84.8-76.6 91.8-7.6 75-67.2 133.6-142.6 133.6v0zM512 832c51.8 0 102.2-10.2 149.4-30.2 45.8-19.4 86.8-47 122-82.4 35.2-35.2 63-76.4 82.4-122 20-47.4 30.2-97.6 30.2-149.4s-10.2-102.2-30.2-149.4c-19.4-45.8-47-86.8-82.4-122-35.2-35.2-76.4-63-122-82.4-47.4-20-97.6-30.2-149.4-30.2s-102.2 10.2-149.4 30.2c-45.8 19.4-86.8 47-122 82.4-35.2 35.2-63 76.4-82.4 122-20 47.2-30.2 97.6-30.2 149.4s10.2 102.2 30.2 149.4c19.4 45.8 47 86.8 82.4 122 35.2 35.2 76.4 63 122 82.4 47.2 20 97.6 30.2 149.4 30.2zM512 864c-229.8 0-416-186.2-416-416s186.2-416 416-416c229.8 0 416 186.2 416 416s-186.2 416-416 416v0z" />
<glyph unicode="&#xf17c;" glyph-name="ios-cloud-circle" d="M512 864c-229.8 0-416-186.2-416-416s186.2-416 416-416c229.8 0 416 186.2 416 416s-186.2 416-416 416zM677.2 320h-330.4c-50.2 0-90.8 42.8-90.8 94.4 0 42 26.4 79.6 66.4 92.4 0.6 40 32.4 72.2 71.4 72.2 10.6 0 20.8-2.4 29.8-6.8 26.2 41 73.8 67.6 125 67.6 75.4 0 135-58.6 142.8-133.8 43.4-7 76.6-45.4 76.6-91.8 0-51.4-40.6-94.2-90.8-94.2z" />
</font>
</defs>
</svg>
